  0
SECTION
  2
HEADER
  9
$ACADVER
  1
AC1018
  9
$ACADMAINTVER
 70
     0
  9
$DWGCODEPAGE
  3
ANSI_1252
  9
$INSBASE
 10
0.0
 20
0.0
 30
0.0
  9
$EXTMIN
 10
-229.4999998092387
 20
23.40000024036749
 30
0.0
  9
$EXTMAX
 10
67.50000019075932
 20
233.4000002403676
 30
0.0
  9
$LIMMIN
 10
0.0
 20
0.0
  9
$LIMMAX
 10
12.0
 20
9.0
  9
$ORTHOMODE
 70
     0
  9
$REGENMODE
 70
     1
  9
$FILLMODE
 70
     1
  9
$QTEXTMODE
 70
     0
  9
$MIRRTEXT
 70
     1
  9
$LTSCALE
 40
1.0
  9
$ATTMODE
 70
     1
  9
$TEXTSIZE
 40
0.2
  9
$TRACEWID
 40
0.05
  9
$TEXTSTYLE
  7
Standard
  9
$CLAYER
  8
0
  9
$CELTYPE
  6
ByLayer
  9
$CECOLOR
 62
   256
  9
$CELTSCALE
 40
1.0
  9
$DISPSILH
 70
     0
  9
$DIMSCALE
 40
1.0
  9
$DIMASZ
 40
0.18
  9
$DIMEXO
 40
0.0625
  9
$DIMDLI
 40
0.38
  9
$DIMRND
 40
0.0
  9
$DIMDLE
 40
0.0
  9
$DIMEXE
 40
0.18
  9
$DIMTP
 40
0.0
  9
$DIMTM
 40
0.0
  9
$DIMTXT
 40
0.18
  9
$DIMCEN
 40
0.09
  9
$DIMTSZ
 40
0.0
  9
$DIMTOL
 70
     0
  9
$DIMLIM
 70
     0
  9
$DIMTIH
 70
     1
  9
$DIMTOH
 70
     1
  9
$DIMSE1
 70
     0
  9
$DIMSE2
 70
     0
  9
$DIMTAD
 70
     0
  9
$DIMZIN
 70
     0
  9
$DIMBLK
  1

  9
$DIMASO
 70
     1
  9
$DIMSHO
 70
     1
  9
$DIMPOST
  1

  9
$DIMAPOST
  1

  9
$DIMALT
 70
     0
  9
$DIMALTD
 70
     2
  9
$DIMALTF
 40
25.4
  9
$DIMLFAC
 40
1.0
  9
$DIMTOFL
 70
     0
  9
$DIMTVP
 40
0.0
  9
$DIMTIX
 70
     0
  9
$DIMSOXD
 70
     0
  9
$DIMSAH
 70
     0
  9
$DIMBLK1
  1

  9
$DIMBLK2
  1

  9
$DIMSTYLE
  2
Standard
  9
$DIMCLRD
 70
     0
  9
$DIMCLRE
 70
     0
  9
$DIMCLRT
 70
     0
  9
$DIMTFAC
 40
1.0
  9
$DIMGAP
 40
0.09
  9
$DIMJUST
 70
     0
  9
$DIMSD1
 70
     0
  9
$DIMSD2
 70
     0
  9
$DIMTOLJ
 70
     1
  9
$DIMTZIN
 70
     0
  9
$DIMALTZ
 70
     0
  9
$DIMALTTZ
 70
     0
  9
$DIMUPT
 70
     0
  9
$DIMDEC
 70
     4
  9
$DIMTDEC
 70
     4
  9
$DIMALTU
 70
     2
  9
$DIMALTTD
 70
     2
  9
$DIMTXSTY
  7
Standard
  9
$DIMAUNIT
 70
     0
  9
$DIMADEC
 70
     0
  9
$DIMALTRND
 40
0.0
  9
$DIMAZIN
 70
     0
  9
$DIMDSEP
 70
    46
  9
$DIMATFIT
 70
     3
  9
$DIMFRAC
 70
     0
  9
$DIMLDRBLK
  1

  9
$DIMLUNIT
 70
     2
  9
$DIMLWD
 70
    -2
  9
$DIMLWE
 70
    -2
  9
$DIMTMOVE
 70
     0
  9
$LUNITS
 70
     2
  9
$LUPREC
 70
     4
  9
$SKETCHINC
 40
0.1
  9
$FILLETRAD
 40
0.5
  9
$AUNITS
 70
     0
  9
$AUPREC
 70
     0
  9
$MENU
  1
.
  9
$ELEVATION
 40
0.0
  9
$PELEVATION
 40
0.0
  9
$THICKNESS
 40
0.0
  9
$LIMCHECK
 70
     0
  9
$CHAMFERA
 40
0.5
  9
$CHAMFERB
 40
0.5
  9
$CHAMFERC
 40
1.0
  9
$CHAMFERD
 40
0.0
  9
$SKPOLY
 70
     0
  9
$TDCREATE
 40
2458157.948331967
  9
$TDUCREATE
 40
2458157.906665301
  9
$TDUPDATE
 40
2458157.948332511
  9
$TDUUPDATE
 40
2458157.906665845
  9
$TDINDWG
 40
0.0000000116
  9
$TDUSRTIMER
 40
0.0000000116
  9
$USRTIMER
 70
     1
  9
$ANGBASE
 50
0.0
  9
$ANGDIR
 70
     0
  9
$PDMODE
 70
     0
  9
$PDSIZE
 40
0.0
  9
$PLINEWID
 40
0.0
  9
$SPLFRAME
 70
     0
  9
$SPLINETYPE
 70
     6
  9
$SPLINESEGS
 70
     8
  9
$HANDSEED
  5
340
  9
$SURFTAB1
 70
     6
  9
$SURFTAB2
 70
     6
  9
$SURFTYPE
 70
     6
  9
$SURFU
 70
     6
  9
$SURFV
 70
     6
  9
$UCSBASE
  2

  9
$UCSNAME
  2

  9
$UCSORG
 10
0.0
 20
0.0
 30
0.0
  9
$UCSXDIR
 10
1.0
 20
0.0
 30
0.0
  9
$UCSYDIR
 10
0.0
 20
1.0
 30
0.0
  9
$UCSORTHOREF
  2

  9
$UCSORTHOVIEW
 70
     0
  9
$UCSORGTOP
 10
0.0
 20
0.0
 30
0.0
  9
$UCSORGBOTTOM
 10
0.0
 20
0.0
 30
0.0
  9
$UCSORGLEFT
 10
0.0
 20
0.0
 30
0.0
  9
$UCSORGRIGHT
 10
0.0
 20
0.0
 30
0.0
  9
$UCSORGFRONT
 10
0.0
 20
0.0
 30
0.0
  9
$UCSORGBACK
 10
0.0
 20
0.0
 30
0.0
  9
$PUCSBASE
  2

  9
$PUCSNAME
  2

  9
$PUCSORG
 10
0.0
 20
0.0
 30
0.0
  9
$PUCSXDIR
 10
1.0
 20
0.0
 30
0.0
  9
$PUCSYDIR
 10
0.0
 20
1.0
 30
0.0
  9
$PUCSORTHOREF
  2

  9
$PUCSORTHOVIEW
 70
     0
  9
$PUCSORGTOP
 10
0.0
 20
0.0
 30
0.0
  9
$PUCSORGBOTTOM
 10
0.0
 20
0.0
 30
0.0
  9
$PUCSORGLEFT
 10
0.0
 20
0.0
 30
0.0
  9
$PUCSORGRIGHT
 10
0.0
 20
0.0
 30
0.0
  9
$PUCSORGFRONT
 10
0.0
 20
0.0
 30
0.0
  9
$PUCSORGBACK
 10
0.0
 20
0.0
 30
0.0
  9
$USERI1
 70
     0
  9
$USERI2
 70
     0
  9
$USERI3
 70
     0
  9
$USERI4
 70
     0
  9
$USERI5
 70
     0
  9
$USERR1
 40
18.1
  9
$USERR2
 40
0.0
  9
$USERR3
 40
0.0
  9
$USERR4
 40
0.0
  9
$USERR5
 40
0.0
  9
$WORLDVIEW
 70
     1
  9
$SHADEDGE
 70
     3
  9
$SHADEDIF
 70
    70
  9
$TILEMODE
 70
     1
  9
$MAXACTVP
 70
    64
  9
$PINSBASE
 10
0.0
 20
0.0
 30
0.0
  9
$PLIMCHECK
 70
     0
  9
$PEXTMIN
 10
1.00000000000000E+20
 20
1.00000000000000E+20
 30
1.00000000000000E+20
  9
$PEXTMAX
 10
-1.00000000000000E+20
 20
-1.00000000000000E+20
 30
-1.00000000000000E+20
  9
$PLIMMIN
 10
0.0
 20
0.0
  9
$PLIMMAX
 10
12.0
 20
9.0
  9
$UNITMODE
 70
     0
  9
$VISRETAIN
 70
     1
  9
$PLINEGEN
 70
     0
  9
$PSLTSCALE
 70
     1
  9
$TREEDEPTH
 70
  3020
  9
$CMLSTYLE
  2
Standard
  9
$CMLJUST
 70
     0
  9
$CMLSCALE
 40
1.0
  9
$PROXYGRAPHICS
 70
     1
  9
$MEASUREMENT
 70
     1
  9
$CELWEIGHT
370
    -1
  9
$ENDCAPS
280
     0
  9
$JOINSTYLE
280
     0
  9
$LWDISPLAY
290
     0
  9
$INSUNITS
 70
     4
  9
$HYPERLINKBASE
  1

  9
$STYLESHEET
  1

  9
$XEDIT
290
     1
  9
$CEPSNTYPE
380
     0
  9
$PSTYLEMODE
290
     1
  9
$FINGERPRINTGUID
  2
{B13C97F9-C034-4220-B35A-F66541AD389E}
  9
$VERSIONGUID
  2
{FAEB1C32-E019-11D5-929B-00C0DF256EC4}
  9
$EXTNAMES
290
     1
  9
$PSVPSCALE
 40
0.0
  9
$OLESTARTUP
290
     0
  9
$SORTENTS
280
   127
  9
$INDEXCTL
280
     0
  9
$HIDETEXT
280
     1
  9
$XCLIPFRAME
290
     0
  9
$HALOGAP
280
     0
  9
$OBSCOLOR
 70
   257
  9
$OBSLTYPE
280
     0
  9
$INTERSECTIONDISPLAY
280
     0
  9
$INTERSECTIONCOLOR
 70
   257
  9
$DIMASSOC
280
     2
  9
$PROJECTNAME
  1

  0
ENDSEC
  0
SECTION
  2
CLASSES
  0
CLASS
  1
ACDBDICTIONARYWDFLT
  2
AcDbDictionaryWithDefault
  3
ObjectDBX Classes
 90
        0
 91
        4
280
     0
281
     0
  0
CLASS
  1
VISUALSTYLE
  2
AcDbVisualStyle
  3
ObjectDBX Classes
 90
     4095
 91
        4
280
     0
281
     0
  0
CLASS
  1
MATERIAL
  2
AcDbMaterial
  3
ObjectDBX Classes
 90
     1153
 91
        4
280
     0
281
     0
  0
ENDSEC
  0
SECTION
  2
TABLES
  0
TABLE
  2
VPORT
  5
8
330
0
100
AcDbSymbolTable
 70
     1
  0
VPORT
  5
29
330
8
100
AcDbSymbolTableRecord
100
AcDbViewportTableRecord
  2
*Active
 70
     0
 10
0.0
 20
0.0
 11
1.0
 21
1.0
 12
-80.99999980923968
 22
128.4000002403675
 13
0.0
 23
0.0
 14
0.5
 24
0.5
 15
0.5
 25
0.5
 16
0.0
 26
0.0
 36
1.0
 17
0.0
 27
0.0
 37
0.0
 40
231.0000000000001
 41
1.60267857142857
 42
50.0
 43
0.0
 44
0.0
 50
0.0
 51
0.0
 71
     0
 72
   100
 73
     1
 74
     3
 75
     0
 76
     0
 77
     0
 78
     0
281
     0
 65
     1
110
0.0
120
0.0
130
0.0
111
1.0
121
0.0
131
0.0
112
0.0
122
1.0
132
0.0
 79
     0
146
0.0
  0
ENDTAB
  0
TABLE
  2
LTYPE
  5
5
330
0
100
AcDbSymbolTable
 70
     8
  0
LTYPE
  5
14
330
5
100
AcDbSymbolTableRecord
100
AcDbLinetypeTableRecord
  2
ByBlock
 70
     0
  3

 72
    65
 73
     0
 40
0.0
  0
LTYPE
  5
15
330
5
100
AcDbSymbolTableRecord
100
AcDbLinetypeTableRecord
  2
ByLayer
 70
     0
  3

 72
    65
 73
     0
 40
0.0
  0
LTYPE
  5
16
330
5
100
AcDbSymbolTableRecord
100
AcDbLinetypeTableRecord
  2
Continuous
 70
     0
  3
Solid line
 72
    65
 73
     0
 40
0.0
  0
LTYPE
  5
3F
330
5
100
AcDbSymbolTableRecord
100
AcDbLinetypeTableRecord
  2
DASHED
 70
     0
  3
Dashed
 72
    65
 73
     2
 40
15.0
 49
7.0
 74
     0
 49
-8.0
 74
     0
  0
LTYPE
  5
40
330
5
100
AcDbSymbolTableRecord
100
AcDbLinetypeTableRecord
  2
DOTTED
 70
     0
  3
Dotted
 72
    65
 73
     2
 40
1.0
 49
0.0
 74
     0
 49
-1.0
 74
     0
  0
LTYPE
  5
41
330
5
100
AcDbSymbolTableRecord
100
AcDbLinetypeTableRecord
  2
DOT_CENTER
 70
     0
  3
Dot_Center
 72
    65
 73
     4
 40
14.0
 49
12.0
 74
     0
 49
-1.0
 74
     0
 49
0.0
 74
     0
 49
-1.0
 74
     0
  0
LTYPE
  5
42
330
5
100
AcDbSymbolTableRecord
100
AcDbLinetypeTableRecord
  2
LONG_DASHED
 70
     0
  3
Long_Dashed
 72
    65
 73
     2
 40
15.0
 49
10.0
 74
     0
 49
-5.0
 74
     0
  0
LTYPE
  5
43
330
5
100
AcDbSymbolTableRecord
100
AcDbLinetypeTableRecord
  2
DASH_CENTER
 70
     0
  3
Dash_Center
 72
    65
 73
     4
 40
14.0
 49
11.0
 74
     0
 49
-1.0
 74
     0
 49
1.0
 74
     0
 49
-1.0
 74
     0
  0
LTYPE
  5
44
330
5
100
AcDbSymbolTableRecord
100
AcDbLinetypeTableRecord
  2
PHANTOM
 70
     0
  3
Phantom
 72
    65
 73
     6
 40
13.0
 49
10.0
 74
     0
 49
-1.0
 74
     0
 49
0.0
 74
     0
 49
-1.0
 74
     0
 49
0.0
 74
     0
 49
-1.0
 74
     0
  0
LTYPE
  5
45
330
5
100
AcDbSymbolTableRecord
100
AcDbLinetypeTableRecord
  2
CENTER_DASH_DASH
 70
     0
  3
Center_Dash_Dash
 72
    65
 73
     6
 40
14.0
 49
9.0
 74
     0
 49
-1.0
 74
     0
 49
1.0
 74
     0
 49
-1.0
 74
     0
 49
1.0
 74
     0
 49
-1.0
 74
     0
  0
ENDTAB
  0
TABLE
  2
LAYER
  5
2
330
0
100
AcDbSymbolTable
 70
     2
  0
LAYER
  5
10
330
2
100
AcDbSymbolTableRecord
100
AcDbLayerTableRecord
  2
0
 70
     0
 62
     7
  6
Continuous
370
    -3
390
F
  0
LAYER
  5
46
330
2
100
AcDbSymbolTableRecord
100
AcDbLayerTableRecord
  2
1
 70
     0
 62
     7
  6
Continuous
370
    -3
390
F
  0
ENDTAB
  0
TABLE
  2
STYLE
  5
3
330
0
100
AcDbSymbolTable
 70
     5
  0
STYLE
  5
11
330
3
100
AcDbSymbolTableRecord
100
AcDbTextStyleTableRecord
  2
Standard
 70
     0
 40
0.0
 41
1.0
 50
0.0
 71
     0
 42
0.2
  3
txt
  4

  0
STYLE
  5
D2
330
3
100
AcDbSymbolTableRecord
100
AcDbTextStyleTableRecord
  2
CONVERTER_11
 70
     0
 40
0.0
 41
0.9
 50
0.0
 71
     0
 42
0.2
  3
txt.shx
  4

  0
STYLE
  5
2DB
330
3
100
AcDbSymbolTableRecord
100
AcDbTextStyleTableRecord
  2
CONVERTER_12
 70
     0
 40
0.0
 41
0.81
 50
0.0
 71
     0
 42
0.2
  3
txt.shx
  4

  0
STYLE
  5
2F1
330
3
100
AcDbSymbolTableRecord
100
AcDbTextStyleTableRecord
  2
CONVERTER_13
 70
     0
 40
0.0
 41
0.72
 50
0.0
 71
     0
 42
0.2
  3
txt.shx
  4

  0
STYLE
  5
2F4
330
3
100
AcDbSymbolTableRecord
100
AcDbTextStyleTableRecord
  2
CONVERTER_14
 70
     0
 40
0.0
 41
0.855
 50
0.0
 71
     0
 42
0.2
  3
txt.shx
  4

  0
ENDTAB
  0
TABLE
  2
VIEW
  5
6
330
0
100
AcDbSymbolTable
 70
     0
  0
ENDTAB
  0
TABLE
  2
UCS
  5
7
330
0
100
AcDbSymbolTable
 70
     0
  0
ENDTAB
  0
TABLE
  2
APPID
  5
9
330
0
100
AcDbSymbolTable
 70
     1
  0
APPID
  5
12
330
9
100
AcDbSymbolTableRecord
100
AcDbRegAppTableRecord
  2
ACAD
 70
     0
  0
ENDTAB
  0
TABLE
  2
DIMSTYLE
  5
A
330
0
100
AcDbSymbolTable
 70
     6
100
AcDbDimStyleTable
  0
DIMSTYLE
105
27
330
A
100
AcDbSymbolTableRecord
100
AcDbDimStyleTableRecord
  2
Standard
 70
     0
178
     0
340
11
  0
DIMSTYLE
105
109
102
{ACAD_REACTORS
330
10A
102
}
330
A
100
AcDbSymbolTableRecord
100
AcDbDimStyleTableRecord
  2
ME10_DIM_10
 70
     0
 41
3.5
 42
0.0
 44
1.5
 73
     0
 74
     0
 77
     1
 78
     8
140
3.5
147
1.5
172
     1
173
     1
174
     1
175
     1
176
     2
177
     2
178
     3
340
D2
  0
DIMSTYLE
105
1BC
102
{ACAD_REACTORS
330
1BD
102
}
330
A
100
AcDbSymbolTableRecord
100
AcDbDimStyleTableRecord
  2
ME10_DIM_11
 70
     0
 41
3.5
 42
0.0
 44
1.5
 73
     0
 74
     0
 77
     1
 78
     8
140
3.5
147
1.5
172
     1
173
     1
174
     1
175
     1
176
     2
177
     2
178
     3
340
D2
  0
DIMSTYLE
105
1C7
102
{ACAD_REACTORS
330
1C8
102
}
330
A
100
AcDbSymbolTableRecord
100
AcDbDimStyleTableRecord
  2
ME10_DIM_12
 70
     0
 41
3.5
 42
0.0
 44
1.5
 73
     0
 74
     0
 77
     1
 78
     8
140
3.5
147
1.5
172
     1
173
     1
174
     1
175
     1
176
     2
177
     2
178
     3
340
D2
  0
DIMSTYLE
105
1D2
102
{ACAD_REACTORS
330
1D3
102
}
330
A
100
AcDbSymbolTableRecord
100
AcDbDimStyleTableRecord
  2
ME10_DIM_13
 70
     0
 41
3.5
 42
0.0
 44
1.5
 73
     0
 74
     0
 77
     1
 78
     8
140
3.5
147
1.5
172
     1
173
     1
174
     1
175
     1
176
     2
177
     2
178
     3
340
D2
  0
DIMSTYLE
105
1DD
102
{ACAD_REACTORS
330
1DE
102
}
330
A
100
AcDbSymbolTableRecord
100
AcDbDimStyleTableRecord
  2
ME10_DIM_14
 70
     0
 41
3.5
 42
0.0
 44
1.5
 73
     0
 74
     0
 77
     1
 78
     8
140
3.5
147
1.5
172
     1
173
     1
174
     1
175
     1
176
     2
177
     2
178
     3
340
D2
  0
ENDTAB
  0
TABLE
  2
BLOCK_RECORD
  5
1
330
0
100
AcDbSymbolTable
 70
    22
  0
BLOCK_RECORD
  5
1F
330
1
100
AcDbSymbolTableRecord
100
AcDbBlockTableRecord
  2
*Model_Space
340
22
  0
BLOCK_RECORD
  5
1B
330
1
100
AcDbSymbolTableRecord
100
AcDbBlockTableRecord
  2
*Paper_Space
340
1E
  0
BLOCK_RECORD
  5
23
330
1
100
AcDbSymbolTableRecord
100
AcDbBlockTableRecord
  2
*Paper_Space0
340
26
  0
BLOCK_RECORD
  5
47
330
1
100
AcDbSymbolTableRecord
100
AcDbBlockTableRecord
  2
CB_PT_BRIDGE-select__1
340
0
102
{BLKREFS
331
4B
102
}
  0
BLOCK_RECORD
  5
4A
330
1
100
AcDbSymbolTableRecord
100
AcDbBlockTableRecord
  2
Allg1
340
0
102
{BLKREFS
331
7D
102
}
  0
BLOCK_RECORD
  5
4E
330
1
100
AcDbSymbolTableRecord
100
AcDbBlockTableRecord
  2
CB_PT_BRIDGE-select__2
340
0
102
{BLKREFS
331
52
102
}
  0
BLOCK_RECORD
  5
51
330
1
100
AcDbSymbolTableRecord
100
AcDbBlockTableRecord
  2
Drfsicht1
340
0
102
{BLKREFS
331
7E
102
}
  0
BLOCK_RECORD
  5
55
330
1
100
AcDbSymbolTableRecord
100
AcDbBlockTableRecord
  2
CB_PT_BRIDGE-select__3
340
0
102
{BLKREFS
331
59
102
}
  0
BLOCK_RECORD
  5
58
330
1
100
AcDbSymbolTableRecord
100
AcDbBlockTableRecord
  2
Rckans1
340
0
102
{BLKREFS
331
7F
102
}
  0
BLOCK_RECORD
  5
5C
330
1
100
AcDbSymbolTableRecord
100
AcDbBlockTableRecord
  2
CB_PT_BRIDGE-select__4
340
0
102
{BLKREFS
331
60
102
}
  0
BLOCK_RECORD
  5
5F
330
1
100
AcDbSymbolTableRecord
100
AcDbBlockTableRecord
  2
SA_Links1
340
0
102
{BLKREFS
331
80
102
}
  0
BLOCK_RECORD
  5
63
330
1
100
AcDbSymbolTableRecord
100
AcDbBlockTableRecord
  2
CB_PT_BRIDGE-select__5
340
0
102
{BLKREFS
331
67
102
}
  0
BLOCK_RECORD
  5
66
330
1
100
AcDbSymbolTableRecord
100
AcDbBlockTableRecord
  2
SA_Rechts1
340
0
102
{BLKREFS
331
81
102
}
  0
BLOCK_RECORD
  5
6A
330
1
100
AcDbSymbolTableRecord
100
AcDbBlockTableRecord
  2
CB_PT_BRIDGE-select__6
340
0
102
{BLKREFS
331
6E
102
}
  0
BLOCK_RECORD
  5
6D
330
1
100
AcDbSymbolTableRecord
100
AcDbBlockTableRecord
  2
Vordans1
340
0
102
{BLKREFS
331
82
102
}
  0
BLOCK_RECORD
  5
71
330
1
100
AcDbSymbolTableRecord
100
AcDbBlockTableRecord
  2
_rahmen
340
0
102
{BLKREFS
331
78
102
}
  0
BLOCK_RECORD
  5
74
330
1
100
AcDbSymbolTableRecord
100
AcDbBlockTableRecord
  2
_punkt
340
0
102
{BLKREFS
331
79
102
}
  0
BLOCK_RECORD
  5
77
330
1
100
AcDbSymbolTableRecord
100
AcDbBlockTableRecord
  2
A4I_CS
340
0
102
{BLKREFS
331
83
102
}
  0
BLOCK_RECORD
  5
7C
330
1
100
AcDbSymbolTableRecord
100
AcDbBlockTableRecord
  2
1
340
0
102
{BLKREFS
331
86
102
}
  0
BLOCK_RECORD
  5
100
330
1
100
AcDbSymbolTableRecord
100
AcDbBlockTableRecord
  2
*D17
340
0
  0
BLOCK_RECORD
  5
1B3
330
1
100
AcDbSymbolTableRecord
100
AcDbBlockTableRecord
  2
*D18
340
0
  0
BLOCK_RECORD
  5
1BE
330
1
100
AcDbSymbolTableRecord
100
AcDbBlockTableRecord
  2
*D19
340
0
  0
BLOCK_RECORD
  5
1C9
330
1
100
AcDbSymbolTableRecord
100
AcDbBlockTableRecord
  2
*D20
340
0
  0
BLOCK_RECORD
  5
1D4
330
1
100
AcDbSymbolTableRecord
100
AcDbBlockTableRecord
  2
*D21
340
0
  0
ENDTAB
  0
ENDSEC
  0
SECTION
  2
BLOCKS
  0
BLOCK
  5
20
330
1F
100
AcDbEntity
  8
0
100
AcDbBlockBegin
  2
*Model_Space
 70
     0
 10
0.0
 20
0.0
 30
0.0
  3
*Model_Space
  1

  0
ENDBLK
  5
21
330
1F
100
AcDbEntity
  8
0
100
AcDbBlockEnd
  0
BLOCK
  5
1C
330
1B
100
AcDbEntity
 67
     1
  8
0
100
AcDbBlockBegin
  2
*Paper_Space
 70
     0
 10
0.0
 20
0.0
 30
0.0
  3
*Paper_Space
  1

  0
ENDBLK
  5
1D
330
1B
100
AcDbEntity
 67
     1
  8
0
100
AcDbBlockEnd
  0
BLOCK
  5
24
330
23
100
AcDbEntity
  8
0
100
AcDbBlockBegin
  2
*Paper_Space0
 70
     0
 10
0.0
 20
0.0
 30
0.0
  3
*Paper_Space0
  1

  0
ENDBLK
  5
25
330
23
100
AcDbEntity
  8
0
100
AcDbBlockEnd
  0
BLOCK
  5
48
330
47
100
AcDbEntity
  8
0
100
AcDbBlockBegin
  2
CB_PT_BRIDGE-select__1
 70
     0
 10
-19.51057191544579
 20
65.6196630477587
 30
0.0
  3
CB_PT_BRIDGE-select__1
  1

  0
LINE
  5
87
330
47
100
AcDbEntity
  8
0
  6
Continuous
 62
     7
100
AcDbLine
 10
13.94057403057298
 20
68.34764306967969
 30
0.0
 11
13.94057403057298
 21
73.96866662298274
 31
0.0
  0
LINE
  5
88
330
47
100
AcDbEntity
  8
0
  6
Continuous
 62
     7
100
AcDbLine
 10
10.79057403057298
 20
65.6196630477587
 30
0.0
 11
10.79057403057298
 21
71.5519370636821
 31
0.0
  0
LINE
  5
89
330
47
100
AcDbEntity
  8
0
  6
Continuous
 62
     7
100
AcDbLine
 10
18.20517143147828
 20
90.03579617249875
 30
0.0
 11
20.13144210481499
 21
95.78027720240048
 31
0.0
  0
LINE
  5
8A
330
47
100
AcDbEntity
  8
0
  6
Continuous
 62
     7
100
AcDbLine
 10
17.11012483814187
 20
76.71357814092288
 30
0.0
 11
17.11012483814187
 21
89.08745800434936
 31
0.0
  0
LINE
  5
8B
330
47
100
AcDbEntity
  8
0
  6
Continuous
 62
     7
100
AcDbLine
 10
11.06012483814189
 20
71.47412444802703
 30
0.0
 11
11.06012483814189
 21
84.72431312593133
 31
0.0
  0
LINE
  5
8C
330
47
100
AcDbEntity
  8
0
  6
Continuous
 62
     7
100
AcDbLine
 10
11.06012483814189
 20
84.72431312593133
 30
0.0
 11
12.15517143147828
 21
84.79634247960288
 31
0.0
  0
LINE
  5
8D
330
47
100
AcDbEntity
  8
0
  6
Continuous
 62
     7
100
AcDbLine
 10
12.15517143147828
 20
84.79634247960288
 30
0.0
 11
14.08144210481498
 21
90.54082350950462
 31
0.0
  0
LINE
  5
8E
330
47
100
AcDbEntity
  8
0
  6
Continuous
 62
     7
100
AcDbLine
 10
19.28310553953429
 20
96.4679778834073
 30
0.0
 11
14.08144210481498
 21
90.54082350950462
 31
0.0
  0
LINE
  5
8F
330
47
100
AcDbEntity
  8
0
  6
Continuous
 62
     7
100
AcDbLine
 10
19.4161934557487
 20
99.19880913041278
 30
0.0
 11
19.28310553953429
 21
96.4679778834073
 31
0.0
  0
LINE
  5
90
330
47
100
AcDbEntity
  8
0
  6
Continuous
 62
     7
100
AcDbLine
 10
19.46057125485089
 20
101.9580897918356
 30
0.0
 11
19.4161934557487
 21
99.19880913041278
 31
0.0
  0
LINE
  5
91
330
47
100
AcDbEntity
  8
0
  6
Continuous
 62
     7
100
AcDbLine
 10
17.11012483814187
 20
76.71357814092288
 30
0.0
 11
11.06012483814189
 21
71.47412444802703
 31
0.0
  0
LINE
  5
92
330
47
100
AcDbEntity
  8
0
  6
Continuous
 62
     7
100
AcDbLine
 10
18.20517143147828
 20
90.03579617249875
 30
0.0
 11
12.15517143147828
 21
84.79634247960288
 31
0.0
  0
LINE
  5
93
330
47
100
AcDbEntity
  8
0
  6
Continuous
 62
     7
100
AcDbLine
 10
20.13144210481499
 20
95.78027720240048
 30
0.0
 11
14.08144210481498
 21
90.54082350950462
 31
0.0
  0
LINE
  5
94
330
47
100
AcDbEntity
  8
0
  6
Continuous
 62
     7
100
AcDbLine
 10
19.28310553953429
 20
96.4679778834073
 30
0.0
 11
25.33310553953427
 21
101.7074315763032
 31
0.0
  0
LINE
  5
95
330
47
100
AcDbEntity
  8
0
  6
Continuous
 62
     7
100
AcDbLine
 10
13.94057403057298
 20
68.34764306967969
 30
0.0
 11
10.79057403057298
 21
65.6196630477587
 31
0.0
  0
LINE
  5
96
330
47
100
AcDbEntity
  8
0
  6
Continuous
 62
     7
100
AcDbLine
 10
25.33310553953427
 20
101.7074315763032
 30
0.0
 11
20.13144210481499
 21
95.78027720240048
 31
0.0
  0
LINE
  5
97
330
47
100
AcDbEntity
  8
0
  6
Continuous
 62
     7
100
AcDbLine
 10
10.09775370754548
 20
71.7519370636821
 30
0.0
 11
10.09775370754548
 21
65.81966304775872
 31
0.0
  0
LINE
  5
98
330
47
100
AcDbEntity
  8
0
  6
Continuous
 62
     7
100
AcDbLine
 10
10.09775370754548
 20
65.81966304775872
 30
0.0
 11
10.79057403057298
 21
65.6196630477587
 31
0.0
  0
LINE
  5
99
330
47
100
AcDbEntity
  8
0
  6
Continuous
 62
     7
100
AcDbLine
 10
-6.65478222520642
 20
121.3306874010576
 30
0.0
 11
-0.60478222520642
 21
126.5701410939535
 31
0.0
  0
LINE
  5
9A
330
47
100
AcDbEntity
  8
0
  6
Continuous
 62
     7
100
AcDbLine
 10
-0.60478222520642
 20
126.5701410939535
 30
0.0
 11
4.63935902365048
 21
125.3468991377124
 31
0.0
  0
LINE
  5
9B
330
47
100
AcDbEntity
  8
0
  6
Continuous
 62
     7
100
AcDbLine
 10
3.81147268086408
 20
118.3097959638806
 30
0.0
 11
9.86147268086408
 21
123.5492496567764
 31
0.0
  0
LINE
  5
9C
330
47
100
AcDbEntity
  8
0
  6
Continuous
 62
     7
100
AcDbLine
 10
-12.69482192940572
 20
127.0636021643996
 30
0.0
 11
-7.76072720002752
 21
127.2711054381862
 31
0.0
  0
LINE
  5
9D
330
47
100
AcDbEntity
  8
0
  6
Continuous
 62
     7
100
AcDbLine
 10
4.63935902365048
 20
125.3468991377124
 30
0.0
 11
-1.41064097634951
 21
120.1074454448165
 31
0.0
  0
LINE
  5
9E
330
47
100
AcDbEntity
  8
0
  6
Continuous
 62
     7
100
AcDbLine
 10
-19.32304407956528
 20
117.1708782247466
 30
0.0
 11
-19.51057191544579
 21
112.5152694688041
 31
0.0
  0
LINE
  5
9F
330
47
100
AcDbEntity
  8
0
  6
Continuous
 62
     7
100
AcDbLine
 10
8.96983056199448
 20
115.9557222201377
 30
0.0
 11
14.00164399244488
 21
113.073755174155
 31
0.0
  0
LINE
  5
A0
330
47
100
AcDbEntity
  8
0
  6
Continuous
 62
     7
100
AcDbLine
 10
25.19517341698767
 20
114.7084133511844
 30
0.0
 11
25.43387540413067
 21
110.8636140703318
 31
0.0
  0
LINE
  5
A1
330
47
100
AcDbEntity
  8
0
  6
Continuous
 62
     7
100
AcDbLine
 10
25.19517341698767
 20
114.7084133511844
 30
0.0
 11
19.14517341698769
 21
109.4689596582886
 31
0.0
  0
LINE
  5
A2
330
47
100
AcDbEntity
  8
0
  6
Continuous
 62
     7
100
AcDbLine
 10
-7.76072720002752
 20
127.2711054381862
 30
0.0
 11
-7.38773575395662
 21
126.7491831143605
 31
0.0
  0
LINE
  5
A3
330
47
100
AcDbEntity
  8
0
  6
Continuous
 62
     7
100
AcDbLine
 10
-13.81072720002752
 20
122.0316517452903
 30
0.0
 11
-7.76072720002752
 21
127.2711054381862
 31
0.0
  0
LINE
  5
A4
330
47
100
AcDbEntity
  8
0
  6
Continuous
 62
     7
100
AcDbLine
 10
-13.64204608603441
 20
120.551371013256
 30
0.0
 11
-7.59204608603441
 21
125.7908247061519
 31
0.0
  0
LINE
  5
A5
330
47
100
AcDbEntity
  8
0
  6
Continuous
 62
     7
100
AcDbLine
 10
9.86147268086408
 20
123.5492496567764
 30
0.0
 11
15.0198305619945
 21
121.1951759130336
 31
0.0
  0
LINE
  5
A6
330
47
100
AcDbEntity
  8
0
  6
Continuous
 62
     7
100
AcDbLine
 10
25.51057125485087
 20
107.1975434847315
 30
0.0
 11
25.46619345574879
 21
104.4382628233086
 31
0.0
  0
LINE
  5
A7
330
47
100
AcDbEntity
  8
0
  6
Continuous
 62
     7
100
AcDbLine
 10
-19.42598613063856
 20
109.3263745074075
 30
0.0
 11
-19.17247034345218
 21
106.097751036204
 31
0.0
  0
LINE
  5
A8
330
47
100
AcDbEntity
  8
0
  6
Continuous
 62
     7
100
AcDbLine
 10
19.38387540413069
 20
105.6241603774359
 30
0.0
 11
19.46057125485089
 21
101.9580897918356
 31
0.0
  0
LINE
  5
A9
330
47
100
AcDbEntity
  8
0
  6
Continuous
 62
     7
100
AcDbLine
 10
19.46057125485089
 20
101.9580897918356
 30
0.0
 11
25.51057125485087
 21
107.1975434847315
 31
0.0
  0
LINE
  5
AA
330
47
100
AcDbEntity
  8
0
  6
Continuous
 62
     7
100
AcDbLine
 10
25.46619345574879
 20
104.4382628233086
 30
0.0
 11
25.33310553953427
 21
101.7074315763032
 31
0.0
  0
LINE
  5
AB
330
47
100
AcDbEntity
  8
0
  6
Continuous
 62
     7
100
AcDbLine
 10
19.4161934557487
 20
99.19880913041278
 30
0.0
 11
25.46619345574879
 21
104.4382628233086
 31
0.0
  0
LINE
  5
AC
330
47
100
AcDbEntity
  8
0
  6
Continuous
 62
     7
100
AcDbLine
 10
-19.51057191544579
 20
112.5152694688041
 30
0.0
 11
-19.42598613063856
 21
109.3263745074075
 31
0.0
  0
LINE
  5
AD
330
47
100
AcDbEntity
  8
0
  6
Continuous
 62
     7
100
AcDbLine
 10
19.14517341698769
 20
109.4689596582886
 30
0.0
 11
19.38387540413069
 21
105.6241603774359
 31
0.0
  0
LINE
  5
AE
330
47
100
AcDbEntity
  8
0
  6
Continuous
 62
     7
100
AcDbLine
 10
14.00164399244488
 20
113.073755174155
 30
0.0
 11
19.14517341698769
 21
109.4689596582886
 31
0.0
  0
LINE
  5
AF
330
47
100
AcDbEntity
  8
0
  6
Continuous
 62
     7
100
AcDbLine
 10
19.38387540413069
 20
105.6241603774359
 30
0.0
 11
25.43387540413067
 21
110.8636140703318
 31
0.0
  0
LINE
  5
B0
330
47
100
AcDbEntity
  8
0
  6
Continuous
 62
     7
100
AcDbLine
 10
25.43387540413067
 20
110.8636140703318
 30
0.0
 11
25.51057125485087
 21
107.1975434847315
 31
0.0
  0
LINE
  5
B1
330
47
100
AcDbEntity
  8
0
  6
Continuous
 62
     7
100
AcDbLine
 10
-17.4124691454192
 20
103.07614025064
 30
0.0
 11
-19.17247034345218
 21
106.097751036204
 31
0.0
  0
LINE
  5
B2
330
47
100
AcDbEntity
  8
0
  6
Continuous
 62
     7
100
AcDbLine
 10
-17.4124691454192
 20
103.07614025064
 30
0.0
 11
-15.18044489652664
 21
92.76385116527857
 31
0.0
  0
LINE
  5
B3
330
47
100
AcDbEntity
  8
0
  6
Continuous
 62
     7
100
AcDbLine
 10
-6.84403566025351
 20
74.34764306967969
 30
0.0
 11
-6.84403566025351
 21
76.64261038970844
 31
0.0
  0
LINE
  5
B4
330
47
100
AcDbEntity
  8
0
  6
Continuous
 62
     7
100
AcDbLine
 10
-10.68685598328112
 20
77.7519370636821
 30
0.0
 11
-10.68685598328112
 21
71.81966304775871
 31
0.0
  0
LINE
  5
B5
330
47
100
AcDbEntity
  8
0
  6
Continuous
 62
     7
100
AcDbLine
 10
-9.99403566025352
 20
71.6196630477587
 30
0.0
 11
-9.99403566025352
 21
77.5519370636821
 31
0.0
  0
LINE
  5
B6
330
47
100
AcDbEntity
  8
0
  6
Continuous
 62
     7
100
AcDbLine
 10
-13.84010857262511
 20
121.5403574661985
 30
0.0
 11
-13.64204608603441
 21
120.551371013256
 31
0.0
  0
LINE
  5
B7
330
47
100
AcDbEntity
  8
0
  6
Continuous
 62
     7
100
AcDbLine
 10
-15.18044489652664
 20
79.04912444802702
 30
0.0
 11
-15.18044489652664
 21
92.76385116527857
 31
0.0
  0
LINE
  5
B8
330
47
100
AcDbEntity
  8
0
  6
Continuous
 62
     7
100
AcDbLine
 10
-10.68685598328112
 20
71.81966304775871
 30
0.0
 11
-9.99403566025352
 21
71.6196630477587
 31
0.0
  0
LINE
  5
B9
330
47
100
AcDbEntity
  8
0
  6
Continuous
 62
     7
100
AcDbLine
 10
-6.84403566025351
 20
74.34764306967969
 30
0.0
 11
-9.99403566025352
 21
71.6196630477587
 31
0.0
  0
LINE
  5
BA
330
47
100
AcDbEntity
  8
0
  6
Continuous
 62
     7
100
AcDbLine
 10
-2.55642765740072
 20
126.8749615839324
 30
0.0
 11
-0.60478222520642
 21
126.5701410939535
 31
0.0
  0
LINE
  5
BB
330
47
100
AcDbEntity
  8
0
  6
Continuous
 62
     7
100
AcDbLine
 10
-7.59204608603441
 20
125.7908247061519
 30
0.0
 11
-4.11398255626362
 21
125.5260794737282
 31
0.0
  0
LINE
  5
BC
330
47
100
AcDbEntity
  8
0
  6
Continuous
 62
     7
100
AcDbLine
 10
-7.59204608603441
 20
125.7908247061519
 30
0.0
 11
-7.72540952246432
 21
126.4567490526413
 31
0.0
  0
LINE
  5
BD
330
47
100
AcDbEntity
  8
0
  6
Continuous
 62
     7
100
AcDbLine
 10
-8.60642765740072
 20
121.6355078910365
 30
0.0
 11
-2.55642765740072
 21
126.8749615839324
 31
0.0
  0
LINE
  5
BE
330
47
100
AcDbEntity
  8
0
  6
Continuous
 62
     7
100
AcDbLine
 10
4.63935902365048
 20
125.3468991377124
 30
0.0
 11
9.86147268086408
 21
123.5492496567764
 31
0.0
  0
LINE
  5
BF
330
47
100
AcDbEntity
  8
0
  6
Continuous
 62
     7
100
AcDbLine
 10
-13.43773575395662
 20
121.5097294214647
 30
0.0
 11
-13.84010857262511
 21
121.5403574661985
 31
0.0
  0
LINE
  5
C0
330
47
100
AcDbEntity
  8
0
  6
Continuous
 62
     7
100
AcDbLine
 10
-13.43773575395662
 20
121.5097294214647
 30
0.0
 11
-13.81072720002752
 21
122.0316517452903
 31
0.0
  0
LINE
  5
C1
330
47
100
AcDbEntity
  8
0
  6
Continuous
 62
     7
100
AcDbLine
 10
-18.74482192940573
 20
121.8241484715037
 30
0.0
 11
-13.81072720002752
 21
122.0316517452903
 31
0.0
  0
LINE
  5
C2
330
47
100
AcDbEntity
  8
0
  6
Continuous
 62
     7
100
AcDbLine
 10
-12.69482192940572
 20
127.0636021643996
 30
0.0
 11
-18.74482192940573
 21
121.8241484715037
 31
0.0
  0
LINE
  5
C3
330
47
100
AcDbEntity
  8
0
  6
Continuous
 62
     7
100
AcDbLine
 10
-13.43773575395662
 20
121.5097294214647
 30
0.0
 11
-7.38773575395662
 21
126.7491831143605
 31
0.0
  0
LINE
  5
C4
330
47
100
AcDbEntity
  8
0
  6
Continuous
 62
     7
100
AcDbLine
 10
15.0198305619945
 20
121.1951759130336
 30
0.0
 11
20.0516439924449
 21
118.3132088670508
 31
0.0
  0
LINE
  5
C5
330
47
100
AcDbEntity
  8
0
  6
Continuous
 62
     7
100
AcDbLine
 10
-13.64204608603441
 20
120.551371013256
 30
0.0
 11
-8.17824675882191
 21
120.1354744057278
 31
0.0
  0
LINE
  5
C6
330
47
100
AcDbEntity
  8
0
  6
Continuous
 62
     7
100
AcDbLine
 10
-8.17824675882191
 20
120.1354744057278
 30
0.0
 11
-8.37630924541261
 21
121.1244608586702
 31
0.0
  0
LINE
  5
C7
330
47
100
AcDbEntity
  8
0
  6
Continuous
 62
     7
100
AcDbLine
 10
-8.37630924541261
 20
121.1244608586702
 30
0.0
 11
-8.77868206408482
 21
121.1550889034108
 31
0.0
  0
LINE
  5
C8
330
47
100
AcDbEntity
  8
0
  6
Continuous
 62
     7
100
AcDbLine
 10
-8.60642765740072
 20
121.6355078910365
 30
0.0
 11
-8.77868206408482
 21
121.1550889034108
 31
0.0
  0
LINE
  5
C9
330
47
100
AcDbEntity
  8
0
  6
Continuous
 62
     7
100
AcDbLine
 10
-8.60642765740072
 20
121.6355078910365
 30
0.0
 11
-6.65478222520642
 21
121.3306874010576
 31
0.0
  0
LINE
  5
CA
330
47
100
AcDbEntity
  8
0
  6
Continuous
 62
     7
100
AcDbLine
 10
-6.65478222520642
 20
121.3306874010576
 30
0.0
 11
-1.41064097634951
 21
120.1074454448165
 31
0.0
  0
LINE
  5
CB
330
47
100
AcDbEntity
  8
0
  6
Continuous
 62
     7
100
AcDbLine
 10
-1.41064097634951
 20
120.1074454448165
 30
0.0
 11
3.81147268086408
 21
118.3097959638806
 31
0.0
  0
LINE
  5
CC
330
47
100
AcDbEntity
  8
0
  6
Continuous
 62
     7
100
AcDbLine
 10
-18.74482192940573
 20
121.8241484715037
 30
0.0
 11
-19.32304407956528
 21
117.1708782247466
 31
0.0
  0
LINE
  5
CD
330
47
100
AcDbEntity
  8
0
  6
Continuous
 62
     7
100
AcDbLine
 10
3.81147268086408
 20
118.3097959638806
 30
0.0
 11
8.96983056199448
 21
115.9557222201377
 31
0.0
  0
LINE
  5
CE
330
47
100
AcDbEntity
  8
0
  6
Continuous
 62
     7
100
AcDbLine
 10
8.96983056199448
 20
115.9557222201377
 30
0.0
 11
15.0198305619945
 21
121.1951759130336
 31
0.0
  0
LINE
  5
CF
330
47
100
AcDbEntity
  8
0
  6
Continuous
 62
     7
100
AcDbLine
 10
20.0516439924449
 20
118.3132088670508
 30
0.0
 11
25.19517341698767
 21
114.7084133511844
 31
0.0
  0
LINE
  5
D0
330
47
100
AcDbEntity
  8
0
  6
Continuous
 62
     7
100
AcDbLine
 10
14.00164399244488
 20
113.073755174155
 30
0.0
 11
20.0516439924449
 21
118.3132088670508
 31
0.0
  0
LINE
  5
D1
330
47
100
AcDbEntity
  8
0
  6
Continuous
 62
     7
100
AcDbLine
 10
11.06012483814189
 20
71.47412444802703
 30
0.0
 11
-15.18044489652664
 21
79.04912444802702
 31
0.0
  0
ENDBLK
  5
49
330
47
100
AcDbEntity
  8
0
100
AcDbBlockEnd
  0
BLOCK
  5
4C
330
4A
100
AcDbEntity
  8
0
100
AcDbBlockBegin
  2
Allg1
 70
     0
 10
2.99999999998579
 20
96.0
 30
0.0
  3
Allg1
  1

  0
INSERT
  5
4B
330
4A
100
AcDbEntity
  8
0
100
AcDbBlockReference
  2
CB_PT_BRIDGE-select__1
 10
-19.51057191544579
 20
65.6196630477587
 30
0.0
  0
MTEXT
  5
D3
330
4A
100
AcDbEntity
  8
1
 62
     6
100
AcDbMText
 10
2.99999999998499
 20
56.42810038304219
 30
0.0
 40
5.0
 41
0.0
 71
     2
 72
     1
  1
 
  7
CONVERTER_11
 73
     1
 44
1.32052821128451
  0
ENDBLK
  5
4D
330
4A
100
AcDbEntity
  8
0
100
AcDbBlockEnd
  0
BLOCK
  5
4F
330
4E
100
AcDbEntity
  8
0
100
AcDbBlockBegin
  2
CB_PT_BRIDGE-select__2
 70
     0
 10
-131.5000003814847
 20
77.95000000018625
 30
0.0
  3
CB_PT_BRIDGE-select__2
  1

  0
LINE
  5
D4
330
4E
100
AcDbEntity
  8
0
  6
Continuous
 62
     7
100
AcDbLine
 10
-124.4876931963103
 20
90.05000000018626
 30
0.0
 11
-124.9183866198988
 21
90.05000000018626
 31
0.0
  0
LINE
  5
D5
330
4E
100
AcDbEntity
  8
0
  6
Continuous
 62
     7
100
AcDbLine
 10
-131.2834618884263
 20
90.05000000018626
 30
0.0
 11
-131.5000003814847
 21
90.05000000018626
 31
0.0
  0
LINE
  5
D6
330
4E
100
AcDbEntity
  8
0
  6
Continuous
 62
     7
100
AcDbLine
 10
-130.6157884603281
 20
90.05000000018626
 30
0.0
 11
-124.9183866198988
 21
90.05000000018626
 31
0.0
  0
LINE
  5
D7
330
4E
100
AcDbEntity
  8
0
  6
Continuous
 62
     7
100
AcDbLine
 10
-130.6157884603281
 20
90.05000000018626
 30
0.0
 11
-131.2834618884263
 21
90.05000000018626
 31
0.0
  0
LINE
  5
D8
330
4E
100
AcDbEntity
  8
0
  6
Continuous
 62
     7
100
AcDbLine
 10
-110.6000003814665
 20
77.95000000018625
 30
0.0
 11
-104.5700229300046
 21
77.95000000018625
 31
0.0
  0
LINE
  5
D9
330
4E
100
AcDbEntity
  8
0
  6
Continuous
 62
     7
100
AcDbLine
 10
-124.9183866198988
 20
77.95000000018625
 30
0.0
 11
-124.4876931963103
 21
77.95000000018625
 31
0.0
  0
LINE
  5
DA
330
4E
100
AcDbEntity
  8
0
  6
Continuous
 62
     7
100
AcDbLine
 10
-118.9089791361393
 20
77.95000000018625
 30
0.0
 11
-116.6554131048588
 21
77.95000000018625
 31
0.0
  0
LINE
  5
DB
330
4E
100
AcDbEntity
  8
0
  6
Continuous
 62
     7
100
AcDbLine
 10
-119.1078813922763
 20
77.95000000018625
 30
0.0
 11
-118.9089791361393
 21
77.95000000018625
 31
0.0
  0
LINE
  5
DC
330
4E
100
AcDbEntity
  8
0
  6
Continuous
 62
     7
100
AcDbLine
 10
-124.4876931963103
 20
77.95000000018625
 30
0.0
 11
-119.1078813922763
 21
77.95000000018625
 31
0.0
  0
LINE
  5
DD
330
4E
100
AcDbEntity
  8
0
  6
Continuous
 62
     7
100
AcDbLine
 10
-116.6554131048588
 20
77.95000000018625
 30
0.0
 11
-110.6000003814665
 21
77.95000000018625
 31
0.0
  0
LINE
  5
DE
330
4E
100
AcDbEntity
  8
0
  6
Continuous
 62
     7
100
AcDbLine
 10
-86.86419043466213
 20
77.95000000018625
 30
0.0
 11
-86.5885611216008
 21
77.95000000018625
 31
0.0
  0
LINE
  5
DF
330
4E
100
AcDbEntity
  8
0
  6
Continuous
 62
     7
100
AcDbLine
 10
-86.5885611216008
 20
77.95000000018625
 30
0.0
 11
-86.50000038148733
 21
77.95000000018625
 31
0.0
  0
LINE
  5
E0
330
4E
100
AcDbEntity
  8
0
  6
Continuous
 62
     7
100
AcDbLine
 10
-104.5700229300046
 20
77.95000000018625
 30
0.0
 11
-98.61366430751168
 21
77.95000000018625
 31
0.0
  0
LINE
  5
E1
330
4E
100
AcDbEntity
  8
0
  6
Continuous
 62
     7
100
AcDbLine
 10
-124.4876931963103
 20
77.95000000018625
 30
0.0
 11
-124.4876931963103
 21
90.05000000018626
 31
0.0
  0
LINE
  5
E2
330
4E
100
AcDbEntity
  8
0
  6
Continuous
 62
     7
100
AcDbLine
 10
-119.1078813922763
 20
77.95000000018625
 30
0.0
 11
-119.1078813922763
 21
90.05000000018626
 31
0.0
  0
LINE
  5
E3
330
4E
100
AcDbEntity
  8
0
  6
Continuous
 62
     7
100
AcDbLine
 10
-118.9089791361393
 20
77.95000000018625
 30
0.0
 11
-118.9089791361393
 21
90.05000000018626
 31
0.0
  0
LINE
  5
E4
330
4E
100
AcDbEntity
  8
0
  6
Continuous
 62
     7
100
AcDbLine
 10
-110.6000003814665
 20
90.05000000018626
 30
0.0
 11
-110.6000003814665
 21
77.95000000018625
 31
0.0
  0
LINE
  5
E5
330
4E
100
AcDbEntity
  8
0
  6
Continuous
 62
     7
100
AcDbLine
 10
-116.6554131048588
 20
77.95000000018625
 30
0.0
 11
-116.6554131048588
 21
90.05000000018626
 31
0.0
  0
LINE
  5
E6
330
4E
100
AcDbEntity
  8
0
  6
Continuous
 62
     7
100
AcDbLine
 10
-118.9089791361393
 20
90.05000000018626
 30
0.0
 11
-116.6554131048588
 21
90.05000000018626
 31
0.0
  0
LINE
  5
E7
330
4E
100
AcDbEntity
  8
0
  6
Continuous
 62
     7
100
AcDbLine
 10
-110.6000003814665
 20
90.05000000018626
 30
0.0
 11
-104.5700229300046
 21
90.05000000018626
 31
0.0
  0
LINE
  5
E8
330
4E
100
AcDbEntity
  8
0
  6
Continuous
 62
     7
100
AcDbLine
 10
-119.1078813922763
 20
90.05000000018626
 30
0.0
 11
-118.9089791361393
 21
90.05000000018626
 31
0.0
  0
LINE
  5
E9
330
4E
100
AcDbEntity
  8
0
  6
Continuous
 62
     7
100
AcDbLine
 10
-124.4876931963103
 20
90.05000000018626
 30
0.0
 11
-119.1078813922763
 21
90.05000000018626
 31
0.0
  0
LINE
  5
EA
330
4E
100
AcDbEntity
  8
0
  6
Continuous
 62
     7
100
AcDbLine
 10
-116.6554131048588
 20
90.05000000018626
 30
0.0
 11
-110.6000003814665
 21
90.05000000018626
 31
0.0
  0
LINE
  5
EB
330
4E
100
AcDbEntity
  8
0
  6
Continuous
 62
     7
100
AcDbLine
 10
-98.61366430751168
 20
90.05000000018626
 30
0.0
 11
-92.80342663034853
 21
90.05000000018626
 31
0.0
  0
LINE
  5
EC
330
4E
100
AcDbEntity
  8
0
  6
Continuous
 62
     7
100
AcDbLine
 10
-98.61366430751168
 20
77.95000000018625
 30
0.0
 11
-92.80342663034853
 21
77.95000000018625
 31
0.0
  0
LINE
  5
ED
330
4E
100
AcDbEntity
  8
0
  6
Continuous
 62
     7
100
AcDbLine
 10
-104.5700229300046
 20
77.95000000018625
 30
0.0
 11
-104.5700229300046
 21
90.05000000018626
 31
0.0
  0
LINE
  5
EE
330
4E
100
AcDbEntity
  8
0
  6
Continuous
 62
     7
100
AcDbLine
 10
-86.86419043466213
 20
90.05000000018626
 30
0.0
 11
-86.5885611216008
 21
90.05000000018626
 31
0.0
  0
LINE
  5
EF
330
4E
100
AcDbEntity
  8
0
  6
Continuous
 62
     7
100
AcDbLine
 10
-92.80342663034853
 20
90.05000000018626
 30
0.0
 11
-86.86419043466213
 21
90.05000000018626
 31
0.0
  0
LINE
  5
F0
330
4E
100
AcDbEntity
  8
0
  6
Continuous
 62
     7
100
AcDbLine
 10
-104.5700229300046
 20
90.05000000018626
 30
0.0
 11
-98.61366430751168
 21
90.05000000018626
 31
0.0
  0
LINE
  5
F1
330
4E
100
AcDbEntity
  8
0
  6
Continuous
 62
     7
100
AcDbLine
 10
-98.61366430751168
 20
77.95000000018625
 30
0.0
 11
-98.61366430751168
 21
90.05000000018626
 31
0.0
  0
LINE
  5
F2
330
4E
100
AcDbEntity
  8
0
  6
Continuous
 62
     7
100
AcDbLine
 10
-92.80342663034853
 20
77.95000000018625
 30
0.0
 11
-86.86419043466213
 21
77.95000000018625
 31
0.0
  0
LINE
  5
F3
330
4E
100
AcDbEntity
  8
0
  6
Continuous
 62
     7
100
AcDbLine
 10
-92.80342663034853
 20
77.95000000018625
 30
0.0
 11
-92.80342663034853
 21
90.05000000018626
 31
0.0
  0
LINE
  5
F4
330
4E
100
AcDbEntity
  8
0
  6
Continuous
 62
     7
100
AcDbLine
 10
-130.6157884603281
 20
90.05000000018626
 30
0.0
 11
-130.6157884603281
 21
77.95000000018625
 31
0.0
  0
LINE
  5
F5
330
4E
100
AcDbEntity
  8
0
  6
Continuous
 62
     7
100
AcDbLine
 10
-131.2834618884263
 20
77.95000000018625
 30
0.0
 11
-131.2834618884263
 21
90.05000000018626
 31
0.0
  0
LINE
  5
F6
330
4E
100
AcDbEntity
  8
0
  6
Continuous
 62
     7
100
AcDbLine
 10
-131.5000003814847
 20
77.95000000018625
 30
0.0
 11
-131.5000003814847
 21
90.05000000018626
 31
0.0
  0
LINE
  5
F7
330
4E
100
AcDbEntity
  8
0
  6
Continuous
 62
     7
100
AcDbLine
 10
-124.9183866198988
 20
77.95000000018625
 30
0.0
 11
-124.9183866198988
 21
90.05000000018626
 31
0.0
  0
LINE
  5
F8
330
4E
100
AcDbEntity
  8
0
  6
Continuous
 62
     7
100
AcDbLine
 10
-130.6157884603281
 20
77.95000000018625
 30
0.0
 11
-131.2834618884263
 21
77.95000000018625
 31
0.0
  0
LINE
  5
F9
330
4E
100
AcDbEntity
  8
0
  6
Continuous
 62
     7
100
AcDbLine
 10
-130.6157884603281
 20
77.95000000018625
 30
0.0
 11
-124.9183866198988
 21
77.95000000018625
 31
0.0
  0
LINE
  5
FA
330
4E
100
AcDbEntity
  8
0
  6
Continuous
 62
     7
100
AcDbLine
 10
-131.2834618884263
 20
77.95000000018625
 30
0.0
 11
-131.5000003814847
 21
77.95000000018625
 31
0.0
  0
LINE
  5
FB
330
4E
100
AcDbEntity
  8
0
  6
Continuous
 62
     7
100
AcDbLine
 10
-86.5885611216008
 20
90.05000000018626
 30
0.0
 11
-86.50000038148733
 21
90.05000000018626
 31
0.0
  0
LINE
  5
FC
330
4E
100
AcDbEntity
  8
0
  6
Continuous
 62
     7
100
AcDbLine
 10
-86.86419043466213
 20
90.05000000018626
 30
0.0
 11
-86.86419043466213
 21
77.95000000018625
 31
0.0
  0
LINE
  5
FD
330
4E
100
AcDbEntity
  8
0
  6
Continuous
 62
     7
100
AcDbLine
 10
-86.50000038148733
 20
77.95000000018625
 30
0.0
 11
-86.50000038148733
 21
90.05000000018626
 31
0.0
  0
LINE
  5
FE
330
4E
100
AcDbEntity
  8
0
  6
Continuous
 62
     7
100
AcDbLine
 10
-86.5885611216008
 20
77.95000000018625
 30
0.0
 11
-86.5885611216008
 21
90.05000000018626
 31
0.0
  0
ENDBLK
  5
50
330
4E
100
AcDbEntity
  8
0
100
AcDbBlockEnd
  0
BLOCK
  5
53
330
51
100
AcDbEntity
  8
0
100
AcDbBlockBegin
  2
Drfsicht1
 70
     0
 10
-109.000000000018
 20
83.99999999999997
 30
0.0
  3
Drfsicht1
  1

  0
INSERT
  5
52
330
51
100
AcDbEntity
  8
0
100
AcDbBlockReference
  2
CB_PT_BRIDGE-select__2
 10
-131.5000003814847
 20
77.95000000018625
 30
0.0
  0
MTEXT
  5
FF
330
51
100
AcDbEntity
  8
1
 62
     6
100
AcDbMText
 10
-109.000000000018
 20
72.95000000018626
 30
0.0
 40
5.0
 41
0.0
 71
     2
 72
     1
  1
 
  7
CONVERTER_11
 73
     1
 44
1.32052821128451
  0
DIMENSION
  5
10A
330
51
100
AcDbEntity
  8
1
100
AcDbDimension
  2
*D17
 10
-138.184618602979
 20
77.95000000018625
 30
0.0
 11
-141.609618602979
 21
84.2400534865018
 31
0.0
 70
    32
  1
<>
 71
     5
 42
-1.0
 53
90.0
  3
ME10_DIM_10
100
AcDbAlignedDimension
 13
-124.9183866198988
 23
90.05000000018626
 33
0.0
 14
-124.9183866198988
 24
77.95000000018625
 34
0.0
 50
90.0
100
AcDbRotatedDimension
  0
ENDBLK
  5
54
330
51
100
AcDbEntity
  8
0
100
AcDbBlockEnd
  0
BLOCK
  5
56
330
55
100
AcDbEntity
  8
0
100
AcDbBlockBegin
  2
CB_PT_BRIDGE-select__3
 70
     0
 10
-8.39999961881546
 20
144.0500004805351
 30
0.0
  3
CB_PT_BRIDGE-select__3
  1

  0
LINE
  5
10B
330
55
100
AcDbEntity
  8
0
  6
Continuous
 62
     7
100
AcDbLine
 10
3.71366430720892
 20
203.5161606172453
 30
0.0
 11
-2.09657336995424
 21
201.8656228611347
 31
0.0
  0
LINE
  5
10C
330
55
100
AcDbEntity
  8
0
  6
Continuous
 62
     7
100
AcDbLine
 10
9.67002292970187
 20
204.5149582094928
 30
0.0
 11
3.71366430720892
 21
203.5161606172453
 31
0.0
  0
LINE
  5
10D
330
55
100
AcDbEntity
  8
0
  6
Continuous
 62
     7
100
AcDbLine
 10
21.75541310455601
 20
204.514431543043
 30
0.0
 11
15.70000038116374
 21
204.8500004805489
 31
0.0
  0
LINE
  5
10E
330
55
100
AcDbEntity
  8
0
  6
Continuous
 62
     7
100
AcDbLine
 10
15.70000038116374
 20
204.8500004805489
 30
0.0
 11
9.67002292970187
 21
204.5149582094928
 31
0.0
  0
LINE
  5
10F
330
55
100
AcDbEntity
  8
0
  6
Continuous
 62
     7
100
AcDbLine
 10
29.58769319600755
 20
202.4601869508249
 30
0.0
 11
30.05231330635341
 21
202.3614288976795
 31
0.0
  0
LINE
  5
110
330
55
100
AcDbEntity
  8
0
  6
Continuous
 62
     7
100
AcDbLine
 10
29.82361044645556
 20
201.2854665368804
 30
0.0
 11
30.05231330635341
 21
202.3614288976795
 31
0.0
  0
LINE
  5
111
330
55
100
AcDbEntity
  8
0
  6
Continuous
 62
     7
100
AcDbLine
 10
30.018386619596
 20
202.9385204571153
 30
0.0
 11
29.58769319600755
 21
202.4601869508249
 31
0.0
  0
LINE
  5
112
330
55
100
AcDbEntity
  8
0
  6
Continuous
 62
     7
100
AcDbLine
 10
29.82361044645556
 20
201.2854665368804
 30
0.0
 11
23.5145584217256
 21
202.6264969426545
 31
0.0
  0
LINE
  5
113
330
55
100
AcDbEntity
  8
0
  6
Continuous
 62
     7
100
AcDbLine
 10
-8.03580956564065
 20
199.417673346391
 30
0.0
 11
-8.31143887870198
 21
195.0576488758777
 31
0.0
  0
LINE
  5
114
330
55
100
AcDbEntity
  8
0
  6
Continuous
 62
     7
100
AcDbLine
 10
35.71578846002534
 20
201.0542180720387
 30
0.0
 11
36.38346188812353
 21
195.488343696165
 31
0.0
  0
LINE
  5
115
330
55
100
AcDbEntity
  8
0
  6
Continuous
 62
     7
100
AcDbLine
 10
35.71578846002534
 20
201.0542180720387
 30
0.0
 11
30.018386619596
 21
202.9385204571153
 31
0.0
  0
LINE
  5
116
330
55
100
AcDbEntity
  8
0
  6
Continuous
 62
     7
100
AcDbLine
 10
-2.09657336995424
 20
201.8656228611347
 30
0.0
 11
-8.03580956564065
 21
199.417673346391
 31
0.0
  0
LINE
  5
117
330
55
100
AcDbEntity
  8
0
  6
Continuous
 62
     7
100
AcDbLine
 10
-8.31143887870198
 20
195.0576488758777
 30
0.0
 11
-8.39999961881546
 21
190.850000480522
 31
0.0
  0
LINE
  5
118
330
55
100
AcDbEntity
  8
0
  6
Continuous
 62
     7
100
AcDbLine
 10
36.38346188812353
 20
195.488343696165
 30
0.0
 11
36.60000038118191
 21
190.0500004805685
 31
0.0
  0
LINE
  5
119
330
55
100
AcDbEntity
  8
0
  6
Continuous
 62
     7
100
AcDbLine
 10
28.10000038122675
 20
152.8500004805627
 30
0.0
 11
28.10000038123653
 21
144.0500004805627
 31
0.0
  0
LINE
  5
11A
330
55
100
AcDbEntity
  8
0
  6
Continuous
 62
     7
100
AcDbLine
 10
28.10000038122675
 20
152.8500004805627
 30
0.0
 11
31.60000038122676
 21
152.8500004805666
 31
0.0
  0
LINE
  5
11B
330
55
100
AcDbEntity
  8
0
  6
Continuous
 62
     7
100
AcDbLine
 10
31.60000038122676
 20
152.8500004805666
 30
0.0
 11
31.60000038120916
 21
168.6864028047012
 31
0.0
  0
LINE
  5
11C
330
55
100
AcDbEntity
  8
0
  6
Continuous
 62
     7
100
AcDbLine
 10
34.17731998306853
 20
179.8500004805293
 30
0.0
 11
31.60000038120916
 21
168.6864028047012
 31
0.0
  0
LINE
  5
11D
330
55
100
AcDbEntity
  8
0
  6
Continuous
 62
     7
100
AcDbLine
 10
36.20959431398212
 20
182.7523890153838
 30
0.0
 11
34.17731998306853
 21
179.8500004805293
 31
0.0
  0
LINE
  5
11E
330
55
100
AcDbEntity
  8
0
  6
Continuous
 62
     7
100
AcDbLine
 10
36.50232912992983
 20
186.3959770134112
 30
0.0
 11
36.20959431398212
 21
182.7523890153838
 31
0.0
  0
LINE
  5
11F
330
55
100
AcDbEntity
  8
0
  6
Continuous
 62
     7
100
AcDbLine
 10
-8.39999961881546
 20
190.850000480522
 30
0.0
 11
-8.34875655029653
 21
187.649065015537
 31
0.0
  0
LINE
  5
120
330
55
100
AcDbEntity
  8
0
  6
Continuous
 62
     7
100
AcDbLine
 10
36.60000038118191
 20
190.0500004805685
 30
0.0
 11
36.50232912992983
 21
186.3959770134112
 31
0.0
  0
LINE
  5
121
330
55
100
AcDbEntity
  8
0
  6
Continuous
 62
     7
100
AcDbLine
 10
-8.34875655029653
 20
187.649065015537
 30
0.0
 11
-8.19507986178835
 21
184.4514100656589
 31
0.0
  0
LINE
  5
122
330
55
100
AcDbEntity
  8
0
  6
Continuous
 62
     7
100
AcDbLine
 10
0.03554949033335
 20
168.59818834511
 30
0.0
 11
-2.18871629324084
 21
175.8734339074901
 31
0.0
  0
LINE
  5
123
330
55
100
AcDbEntity
  8
0
  6
Continuous
 62
     7
100
AcDbLine
 10
1.30000038122675
 20
152.8500004805329
 30
0.0
 11
3.30000038122675
 21
152.8500004805351
 31
0.0
  0
LINE
  5
124
330
55
100
AcDbEntity
  8
0
  6
Continuous
 62
     7
100
AcDbLine
 10
1.30000038122675
 20
152.8500004805329
 30
0.0
 11
1.30000038120976
 21
168.1500004805357
 31
0.0
  0
LINE
  5
125
330
55
100
AcDbEntity
  8
0
  6
Continuous
 62
     7
100
AcDbLine
 10
3.30000038123654
 20
144.0500004805351
 30
0.0
 11
3.30000038122675
 21
152.8500004805351
 31
0.0
  0
LINE
  5
126
330
55
100
AcDbEntity
  8
0
  6
Continuous
 62
     7
100
AcDbLine
 10
1.30000038120976
 20
168.1500004805357
 30
0.0
 11
0.03554949033335
 21
168.59818834511
 31
0.0
  0
LINE
  5
127
330
55
100
AcDbEntity
  8
0
  6
Continuous
 62
     7
100
AcDbLine
 10
27.30000038123653
 20
144.0500004805618
 30
0.0
 11
27.30000038122675
 21
152.8500004805618
 31
0.0
  0
LINE
  5
128
330
55
100
AcDbEntity
  8
0
  6
Continuous
 62
     7
100
AcDbLine
 10
4.10000038122676
 20
152.850000480536
 30
0.0
 11
27.30000038122675
 21
152.8500004805618
 31
0.0
  0
LINE
  5
129
330
55
100
AcDbEntity
  8
0
  6
Continuous
 62
     7
100
AcDbLine
 10
4.10000038122676
 20
152.850000480536
 30
0.0
 11
4.10000038123653
 21
144.050000480536
 31
0.0
  0
LINE
  5
12A
330
55
100
AcDbEntity
  8
0
  6
Continuous
 62
     7
100
AcDbLine
 10
3.30000038122675
 20
152.8500004805351
 30
0.0
 11
4.10000038122676
 21
152.850000480536
 31
0.0
  0
LINE
  5
12B
330
55
100
AcDbEntity
  8
0
  6
Continuous
 62
     7
100
AcDbLine
 10
23.74326128162346
 20
203.7024593034536
 30
0.0
 11
24.20788139197354
 21
203.6037012503149
 31
0.0
  0
LINE
  5
12C
330
55
100
AcDbEntity
  8
0
  6
Continuous
 62
     7
100
AcDbLine
 10
28.10000038123653
 20
144.0500004805627
 30
0.0
 11
27.30000038123653
 21
144.0500004805618
 31
0.0
  0
LINE
  5
12D
330
55
100
AcDbEntity
  8
0
  6
Continuous
 62
     7
100
AcDbLine
 10
27.30000038122675
 20
152.8500004805618
 30
0.0
 11
28.10000038122675
 21
152.8500004805627
 31
0.0
  0
LINE
  5
12E
330
55
100
AcDbEntity
  8
0
  6
Continuous
 62
     7
100
AcDbLine
 10
23.74326128162346
 20
203.7024593034536
 30
0.0
 11
23.5145584217256
 21
202.6264969426545
 31
0.0
  0
LINE
  5
12F
330
55
100
AcDbEntity
  8
0
  6
Continuous
 62
     7
100
AcDbLine
 10
24.20788139197354
 20
203.6037012503149
 30
0.0
 11
24.00897913583648
 21
204.2158594495351
 31
0.0
  0
LINE
  5
130
330
55
100
AcDbEntity
  8
0
  6
Continuous
 62
     7
100
AcDbLine
 10
24.00897913583648
 20
204.2158594495351
 30
0.0
 11
21.75541310455601
 21
204.514431543043
 31
0.0
  0
LINE
  5
131
330
55
100
AcDbEntity
  8
0
  6
Continuous
 62
     7
100
AcDbLine
 10
4.10000038123653
 20
144.050000480536
 30
0.0
 11
3.30000038123654
 21
144.0500004805351
 31
0.0
  0
LINE
  5
132
330
55
100
AcDbEntity
  8
0
  6
Continuous
 62
     7
100
AcDbLine
 10
-8.19507986178835
 20
184.4514100656589
 30
0.0
 11
-2.18871629324084
 21
175.8734339074901
 31
0.0
  0
ENDBLK
  5
57
330
55
100
AcDbEntity
  8
0
100
AcDbBlockEnd
  0
BLOCK
  5
5A
330
58
100
AcDbEntity
  8
0
100
AcDbBlockBegin
  2
Rckans1
 70
     0
 10
14.0999999997152
 20
174.4500005720383
 30
0.0
  3
Rckans1
  1

  0
INSERT
  5
59
330
58
100
AcDbEntity
  8
0
100
AcDbBlockReference
  2
CB_PT_BRIDGE-select__3
 10
-8.39999961881546
 20
144.0500004805351
 30
0.0
  0
MTEXT
  5
133
330
58
100
AcDbEntity
  8
1
 62
     6
100
AcDbMText
 10
14.09999999971512
 20
139.0499999998087
 30
0.0
 40
5.0
 41
0.0
 71
     2
 72
     1
  1
 
  7
CONVERTER_11
 73
     1
 44
1.32052821128451
  0
ENDBLK
  5
5B
330
58
100
AcDbEntity
  8
0
100
AcDbBlockEnd
  0
BLOCK
  5
5D
330
5C
100
AcDbEntity
  8
0
100
AcDbBlockBegin
  2
CB_PT_BRIDGE-select__4
 70
     0
 10
-50.50000000033879
 20
144.0500004805627
 30
0.0
  3
CB_PT_BRIDGE-select__4
  1

  0
LINE
  5
134
330
5C
100
AcDbEntity
  8
0
  6
Continuous
 62
     7
100
AcDbLine
 10
-41.32500000033879
 20
152.8500004805627
 30
0.0
 11
-41.32500000033879
 21
144.0500004805627
 31
0.0
  0
LINE
  5
135
330
5C
100
AcDbEntity
  8
0
  6
Continuous
 62
     7
100
AcDbLine
 10
-47.62500000033879
 20
144.0500004805627
 30
0.0
 11
-41.32500000033879
 21
144.0500004805627
 31
0.0
  0
LINE
  5
136
330
5C
100
AcDbEntity
  8
0
  6
Continuous
 62
     7
100
AcDbLine
 10
-41.32500000033879
 20
152.8500004805627
 30
0.0
 11
-38.40000000033879
 21
152.8500004805666
 31
0.0
  0
LINE
  5
137
330
5C
100
AcDbEntity
  8
0
  6
Continuous
 62
     7
100
AcDbLine
 10
-50.50000000033879
 20
152.8500004805666
 30
0.0
 11
-47.62500000033879
 21
152.8500004805627
 31
0.0
  0
LINE
  5
138
330
5C
100
AcDbEntity
  8
0
  6
Continuous
 62
     7
100
AcDbLine
 10
-47.62500000033879
 20
152.8500004805627
 30
0.0
 11
-41.32500000033879
 21
152.8500004805627
 31
0.0
  0
LINE
  5
139
330
5C
100
AcDbEntity
  8
0
  6
Continuous
 62
     7
100
AcDbLine
 10
-47.62500000033879
 20
152.8500004805627
 30
0.0
 11
-47.62500000033879
 21
144.0500004805627
 31
0.0
  0
LINE
  5
13A
330
5C
100
AcDbEntity
  8
0
  6
Continuous
 62
     7
100
AcDbLine
 10
-38.40000000033879
 20
203.6037012503149
 30
0.0
 11
-38.40000000033879
 21
204.2158594495351
 31
0.0
  0
LINE
  5
13B
330
5C
100
AcDbEntity
  8
0
  6
Continuous
 62
     7
100
AcDbLine
 10
-38.40000000033879
 20
202.9385204571153
 30
0.0
 11
-38.40000000033879
 21
203.6037012503149
 31
0.0
  0
LINE
  5
13C
330
5C
100
AcDbEntity
  8
0
  6
Continuous
 62
     7
100
AcDbLine
 10
-38.40000000033879
 20
204.514431543043
 30
0.0
 11
-38.40000000033879
 21
204.8500004805489
 31
0.0
  0
LINE
  5
13D
330
5C
100
AcDbEntity
  8
0
  6
Continuous
 62
     7
100
AcDbLine
 10
-38.40000000033879
 20
201.0542180720387
 30
0.0
 11
-38.40000000033879
 21
202.9385204571153
 31
0.0
  0
LINE
  5
13E
330
5C
100
AcDbEntity
  8
0
  6
Continuous
 62
     7
100
AcDbLine
 10
-38.40000000033879
 20
195.488343696165
 30
0.0
 11
-38.40000000033879
 21
190.0500004805685
 31
0.0
  0
LINE
  5
13F
330
5C
100
AcDbEntity
  8
0
  6
Continuous
 62
     7
100
AcDbLine
 10
-38.40000000033879
 20
179.8500004805293
 30
0.0
 11
-38.40000000033879
 21
182.7523890153838
 31
0.0
  0
LINE
  5
140
330
5C
100
AcDbEntity
  8
0
  6
Continuous
 62
     7
100
AcDbLine
 10
-38.40000000033879
 20
201.0542180720387
 30
0.0
 11
-38.40000000033879
 21
195.488343696165
 31
0.0
  0
LINE
  5
141
330
5C
100
AcDbEntity
  8
0
  6
Continuous
 62
     7
100
AcDbLine
 10
-50.50000000033879
 20
195.488343696165
 30
0.0
 11
-50.50000000033879
 21
190.0500004805685
 31
0.0
  0
LINE
  5
142
330
5C
100
AcDbEntity
  8
0
  6
Continuous
 62
     7
100
AcDbLine
 10
-50.50000000033879
 20
201.0542180720387
 30
0.0
 11
-50.50000000033879
 21
202.9385204571153
 31
0.0
  0
LINE
  5
143
330
5C
100
AcDbEntity
  8
0
  6
Continuous
 62
     7
100
AcDbLine
 10
-50.50000000033879
 20
201.0542180720387
 30
0.0
 11
-50.50000000033879
 21
195.488343696165
 31
0.0
  0
LINE
  5
144
330
5C
100
AcDbEntity
  8
0
  6
Continuous
 62
     7
100
AcDbLine
 10
-50.50000000033879
 20
204.2158594495351
 30
0.0
 11
-50.50000000033879
 21
204.514431543043
 31
0.0
  0
LINE
  5
145
330
5C
100
AcDbEntity
  8
0
  6
Continuous
 62
     7
100
AcDbLine
 10
-38.40000000033879
 20
204.2158594495351
 30
0.0
 11
-38.40000000033879
 21
204.514431543043
 31
0.0
  0
LINE
  5
146
330
5C
100
AcDbEntity
  8
0
  6
Continuous
 62
     7
100
AcDbLine
 10
-38.40000000033879
 20
203.6037012503149
 30
0.0
 11
-50.50000000033879
 21
203.6037012503149
 31
0.0
  0
LINE
  5
147
330
5C
100
AcDbEntity
  8
0
  6
Continuous
 62
     7
100
AcDbLine
 10
-50.50000000033879
 20
203.6037012503149
 30
0.0
 11
-50.50000000033879
 21
204.2158594495351
 31
0.0
  0
LINE
  5
148
330
5C
100
AcDbEntity
  8
0
  6
Continuous
 62
     7
100
AcDbLine
 10
-38.40000000033879
 20
204.2158594495351
 30
0.0
 11
-50.50000000033879
 21
204.2158594495351
 31
0.0
  0
LINE
  5
149
330
5C
100
AcDbEntity
  8
0
  6
Continuous
 62
     7
100
AcDbLine
 10
-50.50000000033879
 20
203.6037012503149
 30
0.0
 11
-50.50000000033879
 21
202.9385204571153
 31
0.0
  0
LINE
  5
14A
330
5C
100
AcDbEntity
  8
0
  6
Continuous
 62
     7
100
AcDbLine
 10
-38.40000000033879
 20
204.514431543043
 30
0.0
 11
-50.50000000033879
 21
204.514431543043
 31
0.0
  0
LINE
  5
14B
330
5C
100
AcDbEntity
  8
0
  6
Continuous
 62
     7
100
AcDbLine
 10
-50.50000000033879
 20
204.514431543043
 30
0.0
 11
-50.50000000033879
 21
204.8500004805489
 31
0.0
  0
LINE
  5
14C
330
5C
100
AcDbEntity
  8
0
  6
Continuous
 62
     7
100
AcDbLine
 10
-38.40000000033879
 20
202.9385204571153
 30
0.0
 11
-50.50000000033879
 21
202.9385204571153
 31
0.0
  0
LINE
  5
14D
330
5C
100
AcDbEntity
  8
0
  6
Continuous
 62
     7
100
AcDbLine
 10
-50.50000000033879
 20
204.8500004805489
 30
0.0
 11
-38.40000000033879
 21
204.8500004805489
 31
0.0
  0
LINE
  5
14E
330
5C
100
AcDbEntity
  8
0
  6
Continuous
 62
     7
100
AcDbLine
 10
-50.50000000033879
 20
168.6864028047012
 30
0.0
 11
-38.40000000033879
 21
168.6864028047012
 31
0.0
  0
LINE
  5
14F
330
5C
100
AcDbEntity
  8
0
  6
Continuous
 62
     7
100
AcDbLine
 10
-50.50000000033879
 20
186.3959770134112
 30
0.0
 11
-50.50000000033879
 21
182.7523890153838
 31
0.0
  0
LINE
  5
150
330
5C
100
AcDbEntity
  8
0
  6
Continuous
 62
     7
100
AcDbLine
 10
-38.40000000033879
 20
186.3959770134112
 30
0.0
 11
-38.40000000033879
 21
182.7523890153838
 31
0.0
  0
LINE
  5
151
330
5C
100
AcDbEntity
  8
0
  6
Continuous
 62
     7
100
AcDbLine
 10
-38.40000000033879
 20
182.7523890153838
 30
0.0
 11
-50.50000000033879
 21
182.7523890153838
 31
0.0
  0
LINE
  5
152
330
5C
100
AcDbEntity
  8
0
  6
Continuous
 62
     7
100
AcDbLine
 10
-38.40000000033879
 20
186.3959770134112
 30
0.0
 11
-50.50000000033879
 21
186.3959770134112
 31
0.0
  0
LINE
  5
153
330
5C
100
AcDbEntity
  8
0
  6
Continuous
 62
     7
100
AcDbLine
 10
-50.50000000033879
 20
190.0500004805685
 30
0.0
 11
-50.50000000033879
 21
186.3959770134112
 31
0.0
  0
LINE
  5
154
330
5C
100
AcDbEntity
  8
0
  6
Continuous
 62
     7
100
AcDbLine
 10
-38.40000000033879
 20
190.0500004805685
 30
0.0
 11
-38.40000000033879
 21
186.3959770134112
 31
0.0
  0
LINE
  5
155
330
5C
100
AcDbEntity
  8
0
  6
Continuous
 62
     7
100
AcDbLine
 10
-50.50000000033879
 20
179.8500004805293
 30
0.0
 11
-38.40000000033879
 21
179.8500004805293
 31
0.0
  0
LINE
  5
156
330
5C
100
AcDbEntity
  8
0
  6
Continuous
 62
     7
100
AcDbLine
 10
-38.40000000033879
 20
190.0500004805685
 30
0.0
 11
-50.50000000033879
 21
190.0500004805685
 31
0.0
  0
LINE
  5
157
330
5C
100
AcDbEntity
  8
0
  6
Continuous
 62
     7
100
AcDbLine
 10
-50.50000000033879
 20
179.8500004805293
 30
0.0
 11
-50.50000000033879
 21
168.6864028047012
 31
0.0
  0
LINE
  5
158
330
5C
100
AcDbEntity
  8
0
  6
Continuous
 62
     7
100
AcDbLine
 10
-50.50000000033879
 20
182.7523890153838
 30
0.0
 11
-50.50000000033879
 21
179.8500004805293
 31
0.0
  0
LINE
  5
159
330
5C
100
AcDbEntity
  8
0
  6
Continuous
 62
     7
100
AcDbLine
 10
-50.50000000033879
 20
201.0542180720387
 30
0.0
 11
-38.40000000033879
 21
201.0542180720387
 31
0.0
  0
LINE
  5
15A
330
5C
100
AcDbEntity
  8
0
  6
Continuous
 62
     7
100
AcDbLine
 10
-38.40000000033879
 20
195.488343696165
 30
0.0
 11
-50.50000000033879
 21
195.488343696165
 31
0.0
  0
LINE
  5
15B
330
5C
100
AcDbEntity
  8
0
  6
Continuous
 62
     7
100
AcDbLine
 10
-38.40000000033879
 20
179.8500004805293
 30
0.0
 11
-38.40000000033879
 21
168.6864028047012
 31
0.0
  0
LINE
  5
15C
330
5C
100
AcDbEntity
  8
0
  6
Continuous
 62
     7
100
AcDbLine
 10
-38.40000000033879
 20
152.8500004805666
 30
0.0
 11
-38.40000000033879
 21
168.6864028047012
 31
0.0
  0
LINE
  5
15D
330
5C
100
AcDbEntity
  8
0
  6
Continuous
 62
     7
100
AcDbLine
 10
-50.50000000033879
 20
152.8500004805666
 30
0.0
 11
-50.50000000033879
 21
168.6864028047012
 31
0.0
  0
ENDBLK
  5
5E
330
5C
100
AcDbEntity
  8
0
100
AcDbBlockEnd
  0
BLOCK
  5
61
330
5F
100
AcDbEntity
  8
0
100
AcDbBlockBegin
  2
SA_Links1
 70
     0
 10
-44.4500000001525
 20
174.4500005720383
 30
0.0
  3
SA_Links1
  1

  0
INSERT
  5
60
330
5F
100
AcDbEntity
  8
0
100
AcDbBlockReference
  2
CB_PT_BRIDGE-select__4
 10
-50.50000000033879
 20
144.0500004805627
 30
0.0
  0
MTEXT
  5
15E
330
5F
100
AcDbEntity
  8
1
 62
     6
100
AcDbMText
 10
-44.4500000001525
 20
139.0499999998087
 30
0.0
 40
5.0
 41
0.0
 71
     2
 72
     1
  1
 
  7
CONVERTER_11
 73
     1
 44
1.32052821128451
  0
ENDBLK
  5
62
330
5F
100
AcDbEntity
  8
0
100
AcDbBlockEnd
  0
BLOCK
  5
64
330
63
100
AcDbEntity
  8
0
100
AcDbBlockBegin
  2
CB_PT_BRIDGE-select__5
 70
     0
 10
-198.599999999661
 20
144.050000480535
 30
0.0
  3
CB_PT_BRIDGE-select__5
  1

  0
LINE
  5
15F
330
63
100
AcDbEntity
  8
0
  6
Continuous
 62
     7
100
AcDbLine
 10
-198.599999999661
 20
204.5149582094927
 30
0.0
 11
-198.599999999661
 21
203.5161606172453
 31
0.0
  0
LINE
  5
160
330
63
100
AcDbEntity
  8
0
  6
Continuous
 62
     7
100
AcDbLine
 10
-198.599999999661
 20
204.8500004805488
 30
0.0
 11
-198.599999999661
 21
204.5149582094927
 31
0.0
  0
LINE
  5
161
330
63
100
AcDbEntity
  8
0
  6
Continuous
 62
     7
100
AcDbLine
 10
-198.599999999661
 20
203.5161606172453
 30
0.0
 11
-198.599999999661
 21
201.8656228611347
 31
0.0
  0
LINE
  5
162
330
63
100
AcDbEntity
  8
0
  6
Continuous
 62
     7
100
AcDbLine
 10
-198.599999999661
 20
201.8656228611347
 30
0.0
 11
-198.599999999661
 21
199.417673346391
 31
0.0
  0
LINE
  5
163
330
63
100
AcDbEntity
  8
0
  6
Continuous
 62
     7
100
AcDbLine
 10
-198.599999999661
 20
187.6490650155369
 30
0.0
 11
-198.599999999661
 21
184.4514100656588
 31
0.0
  0
LINE
  5
164
330
63
100
AcDbEntity
  8
0
  6
Continuous
 62
     7
100
AcDbLine
 10
-198.599999999661
 20
184.4514100656588
 30
0.0
 11
-198.599999999661
 21
175.87343390749
 31
0.0
  0
LINE
  5
165
330
63
100
AcDbEntity
  8
0
  6
Continuous
 62
     7
100
AcDbLine
 10
-198.599999999661
 20
204.5149582094927
 30
0.0
 11
-186.4999999996609
 21
204.5149582094927
 31
0.0
  0
LINE
  5
166
330
63
100
AcDbEntity
  8
0
  6
Continuous
 62
     7
100
AcDbLine
 10
-186.4999999996609
 20
204.8500004805488
 30
0.0
 11
-198.599999999661
 21
204.8500004805488
 31
0.0
  0
LINE
  5
167
330
63
100
AcDbEntity
  8
0
  6
Continuous
 62
     7
100
AcDbLine
 10
-198.599999999661
 20
203.5161606172453
 30
0.0
 11
-186.4999999996609
 21
203.5161606172453
 31
0.0
  0
LINE
  5
168
330
63
100
AcDbEntity
  8
0
  6
Continuous
 62
     7
100
AcDbLine
 10
-198.599999999661
 20
201.8656228611347
 30
0.0
 11
-186.4999999996609
 21
201.8656228611347
 31
0.0
  0
LINE
  5
169
330
63
100
AcDbEntity
  8
0
  6
Continuous
 62
     7
100
AcDbLine
 10
-186.4999999996609
 20
195.0576488758776
 30
0.0
 11
-186.4999999996609
 21
190.850000480522
 31
0.0
  0
LINE
  5
16A
330
63
100
AcDbEntity
  8
0
  6
Continuous
 62
     7
100
AcDbLine
 10
-186.4999999996609
 20
199.417673346391
 30
0.0
 11
-186.4999999996609
 21
195.0576488758776
 31
0.0
  0
LINE
  5
16B
330
63
100
AcDbEntity
  8
0
  6
Continuous
 62
     7
100
AcDbLine
 10
-198.599999999661
 20
199.417673346391
 30
0.0
 11
-198.599999999661
 21
195.0576488758776
 31
0.0
  0
LINE
  5
16C
330
63
100
AcDbEntity
  8
0
  6
Continuous
 62
     7
100
AcDbLine
 10
-198.599999999661
 20
195.0576488758776
 30
0.0
 11
-198.599999999661
 21
190.850000480522
 31
0.0
  0
LINE
  5
16D
330
63
100
AcDbEntity
  8
0
  6
Continuous
 62
     7
100
AcDbLine
 10
-186.4999999996609
 20
199.417673346391
 30
0.0
 11
-198.599999999661
 21
199.417673346391
 31
0.0
  0
LINE
  5
16E
330
63
100
AcDbEntity
  8
0
  6
Continuous
 62
     7
100
AcDbLine
 10
-198.599999999661
 20
190.850000480522
 30
0.0
 11
-186.4999999996609
 21
190.850000480522
 31
0.0
  0
LINE
  5
16F
330
63
100
AcDbEntity
  8
0
  6
Continuous
 62
     7
100
AcDbLine
 10
-186.4999999996609
 20
204.5149582094927
 30
0.0
 11
-186.4999999996609
 21
203.5161606172453
 31
0.0
  0
LINE
  5
170
330
63
100
AcDbEntity
  8
0
  6
Continuous
 62
     7
100
AcDbLine
 10
-186.4999999996609
 20
204.8500004805488
 30
0.0
 11
-186.4999999996609
 21
204.5149582094927
 31
0.0
  0
LINE
  5
171
330
63
100
AcDbEntity
  8
0
  6
Continuous
 62
     7
100
AcDbLine
 10
-186.4999999996609
 20
203.5161606172453
 30
0.0
 11
-186.4999999996609
 21
201.8656228611347
 31
0.0
  0
LINE
  5
172
330
63
100
AcDbEntity
  8
0
  6
Continuous
 62
     7
100
AcDbLine
 10
-186.4999999996609
 20
201.8656228611347
 30
0.0
 11
-186.4999999996609
 21
199.417673346391
 31
0.0
  0
LINE
  5
173
330
63
100
AcDbEntity
  8
0
  6
Continuous
 62
     7
100
AcDbLine
 10
-186.4999999996609
 20
187.6490650155369
 30
0.0
 11
-186.4999999996609
 21
184.4514100656588
 31
0.0
  0
LINE
  5
174
330
63
100
AcDbEntity
  8
0
  6
Continuous
 62
     7
100
AcDbLine
 10
-186.4999999996609
 20
184.4514100656588
 30
0.0
 11
-186.4999999996609
 21
175.87343390749
 31
0.0
  0
LINE
  5
175
330
63
100
AcDbEntity
  8
0
  6
Continuous
 62
     7
100
AcDbLine
 10
-186.4999999996609
 20
152.8500004805328
 30
0.0
 11
-189.3749999996609
 21
152.850000480535
 31
0.0
  0
LINE
  5
176
330
63
100
AcDbEntity
  8
0
  6
Continuous
 62
     7
100
AcDbLine
 10
-195.6749999996609
 20
152.850000480535
 30
0.0
 11
-198.599999999661
 21
152.8500004805328
 31
0.0
  0
LINE
  5
177
330
63
100
AcDbEntity
  8
0
  6
Continuous
 62
     7
100
AcDbLine
 10
-189.3749999996609
 20
152.850000480535
 30
0.0
 11
-195.6749999996609
 21
152.850000480535
 31
0.0
  0
LINE
  5
178
330
63
100
AcDbEntity
  8
0
  6
Continuous
 62
     7
100
AcDbLine
 10
-189.3749999996609
 20
144.050000480535
 30
0.0
 11
-195.6749999996609
 21
144.050000480535
 31
0.0
  0
LINE
  5
179
330
63
100
AcDbEntity
  8
0
  6
Continuous
 62
     7
100
AcDbLine
 10
-198.599999999661
 20
168.1500004805356
 30
0.0
 11
-198.599999999661
 21
168.59818834511
 31
0.0
  0
LINE
  5
17A
330
63
100
AcDbEntity
  8
0
  6
Continuous
 62
     7
100
AcDbLine
 10
-198.599999999661
 20
152.8500004805328
 30
0.0
 11
-198.599999999661
 21
168.1500004805356
 31
0.0
  0
LINE
  5
17B
330
63
100
AcDbEntity
  8
0
  6
Continuous
 62
     7
100
AcDbLine
 10
-195.6749999996609
 20
144.050000480535
 30
0.0
 11
-195.6749999996609
 21
152.850000480535
 31
0.0
  0
LINE
  5
17C
330
63
100
AcDbEntity
  8
0
  6
Continuous
 62
     7
100
AcDbLine
 10
-198.599999999661
 20
168.1500004805356
 30
0.0
 11
-186.4999999996609
 21
168.1500004805356
 31
0.0
  0
LINE
  5
17D
330
63
100
AcDbEntity
  8
0
  6
Continuous
 62
     7
100
AcDbLine
 10
-186.4999999996609
 20
168.1500004805356
 30
0.0
 11
-186.4999999996609
 21
168.59818834511
 31
0.0
  0
LINE
  5
17E
330
63
100
AcDbEntity
  8
0
  6
Continuous
 62
     7
100
AcDbLine
 10
-186.4999999996609
 20
168.59818834511
 30
0.0
 11
-186.4999999996609
 21
175.87343390749
 31
0.0
  0
LINE
  5
17F
330
63
100
AcDbEntity
  8
0
  6
Continuous
 62
     7
100
AcDbLine
 10
-189.3749999996609
 20
144.050000480535
 30
0.0
 11
-189.3749999996609
 21
152.850000480535
 31
0.0
  0
LINE
  5
180
330
63
100
AcDbEntity
  8
0
  6
Continuous
 62
     7
100
AcDbLine
 10
-186.4999999996609
 20
190.850000480522
 30
0.0
 11
-186.4999999996609
 21
187.6490650155369
 31
0.0
  0
LINE
  5
181
330
63
100
AcDbEntity
  8
0
  6
Continuous
 62
     7
100
AcDbLine
 10
-198.599999999661
 20
190.850000480522
 30
0.0
 11
-198.599999999661
 21
187.6490650155369
 31
0.0
  0
LINE
  5
182
330
63
100
AcDbEntity
  8
0
  6
Continuous
 62
     7
100
AcDbLine
 10
-198.599999999661
 20
187.6490650155369
 30
0.0
 11
-186.4999999996609
 21
187.6490650155369
 31
0.0
  0
LINE
  5
183
330
63
100
AcDbEntity
  8
0
  6
Continuous
 62
     7
100
AcDbLine
 10
-198.599999999661
 20
195.0576488758776
 30
0.0
 11
-186.4999999996609
 21
195.0576488758776
 31
0.0
  0
LINE
  5
184
330
63
100
AcDbEntity
  8
0
  6
Continuous
 62
     7
100
AcDbLine
 10
-198.599999999661
 20
184.4514100656588
 30
0.0
 11
-186.4999999996609
 21
184.4514100656588
 31
0.0
  0
LINE
  5
185
330
63
100
AcDbEntity
  8
0
  6
Continuous
 62
     7
100
AcDbLine
 10
-198.599999999661
 20
168.59818834511
 30
0.0
 11
-198.599999999661
 21
175.87343390749
 31
0.0
  0
LINE
  5
186
330
63
100
AcDbEntity
  8
0
  6
Continuous
 62
     7
100
AcDbLine
 10
-186.4999999996609
 20
168.59818834511
 30
0.0
 11
-198.599999999661
 21
168.59818834511
 31
0.0
  0
LINE
  5
187
330
63
100
AcDbEntity
  8
0
  6
Continuous
 62
     7
100
AcDbLine
 10
-186.4999999996609
 20
175.87343390749
 30
0.0
 11
-198.599999999661
 21
175.87343390749
 31
0.0
  0
LINE
  5
188
330
63
100
AcDbEntity
  8
0
  6
Continuous
 62
     7
100
AcDbLine
 10
-186.4999999996609
 20
152.8500004805328
 30
0.0
 11
-186.4999999996609
 21
168.1500004805356
 31
0.0
  0
ENDBLK
  5
65
330
63
100
AcDbEntity
  8
0
100
AcDbBlockEnd
  0
BLOCK
  5
68
330
66
100
AcDbEntity
  8
0
100
AcDbBlockBegin
  2
SA_Rechts1
 70
     0
 10
-192.5499999998472
 20
174.4500005720383
 30
0.0
  3
SA_Rechts1
  1

  0
INSERT
  5
67
330
66
100
AcDbEntity
  8
0
100
AcDbBlockReference
  2
CB_PT_BRIDGE-select__5
 10
-198.599999999661
 20
144.050000480535
 30
0.0
  0
MTEXT
  5
189
330
66
100
AcDbEntity
  8
1
 62
     6
100
AcDbMText
 10
-192.5499999998476
 20
139.0499999998087
 30
0.0
 40
5.0
 41
0.0
 71
     2
 72
     1
  1
 
  7
CONVERTER_11
 73
     1
 44
1.32052821128451
  0
ENDBLK
  5
69
330
66
100
AcDbEntity
  8
0
100
AcDbBlockEnd
  0
BLOCK
  5
6B
330
6A
100
AcDbEntity
  8
0
100
AcDbBlockBegin
  2
CB_PT_BRIDGE-select__6
 70
     0
 10
-131.5000003814847
 20
144.050000480535
 30
0.0
  3
CB_PT_BRIDGE-select__6
  1

  0
LINE
  5
18A
330
6A
100
AcDbEntity
  8
0
  6
Continuous
 62
     7
100
AcDbLine
 10
-99.00000038153931
 20
144.0500004805359
 30
0.0
 11
-98.2000003815393
 21
144.050000480535
 31
0.0
  0
LINE
  5
18B
330
6A
100
AcDbEntity
  8
0
  6
Continuous
 62
     7
100
AcDbLine
 10
-96.20000038152952
 20
152.8500004805328
 30
0.0
 11
-96.20000038151252
 21
168.1500004805356
 31
0.0
  0
LINE
  5
18C
330
6A
100
AcDbEntity
  8
0
  6
Continuous
 62
     7
100
AcDbLine
 10
-99.00000038152953
 20
152.8500004805359
 30
0.0
 11
-99.00000038153931
 21
144.0500004805359
 31
0.0
  0
LINE
  5
18D
330
6A
100
AcDbEntity
  8
0
  6
Continuous
 62
     7
100
AcDbLine
 10
-98.2000003815393
 20
144.050000480535
 30
0.0
 11
-98.20000038152952
 21
152.850000480535
 31
0.0
  0
LINE
  5
18E
330
6A
100
AcDbEntity
  8
0
  6
Continuous
 62
     7
100
AcDbLine
 10
-126.5000003815295
 20
152.8500004805665
 30
0.0
 11
-126.5000003815119
 21
168.6864028047012
 31
0.0
  0
LINE
  5
18F
330
6A
100
AcDbEntity
  8
0
  6
Continuous
 62
     7
100
AcDbLine
 10
-123.0000003815295
 20
152.8500004805626
 30
0.0
 11
-123.0000003815393
 21
144.0500004805626
 31
0.0
  0
LINE
  5
190
330
6A
100
AcDbEntity
  8
0
  6
Continuous
 62
     7
100
AcDbLine
 10
-123.0000003815393
 20
144.0500004805626
 30
0.0
 11
-122.2000003815393
 21
144.0500004805617
 31
0.0
  0
LINE
  5
191
330
6A
100
AcDbEntity
  8
0
  6
Continuous
 62
     7
100
AcDbLine
 10
-122.2000003815393
 20
144.0500004805617
 30
0.0
 11
-122.2000003815295
 21
152.8500004805617
 31
0.0
  0
LINE
  5
192
330
6A
100
AcDbEntity
  8
0
  6
Continuous
 62
     7
100
AcDbLine
 10
-98.20000038152952
 20
152.850000480535
 30
0.0
 11
-99.00000038152953
 21
152.8500004805359
 31
0.0
  0
LINE
  5
193
330
6A
100
AcDbEntity
  8
0
  6
Continuous
 62
     7
100
AcDbLine
 10
-96.20000038152952
 20
152.8500004805328
 30
0.0
 11
-98.20000038152952
 21
152.850000480535
 31
0.0
  0
LINE
  5
194
330
6A
100
AcDbEntity
  8
0
  6
Continuous
 62
     7
100
AcDbLine
 10
-122.2000003815295
 20
152.8500004805617
 30
0.0
 11
-123.0000003815295
 21
152.8500004805626
 31
0.0
  0
LINE
  5
195
330
6A
100
AcDbEntity
  8
0
  6
Continuous
 62
     7
100
AcDbLine
 10
-123.0000003815295
 20
152.8500004805626
 30
0.0
 11
-126.5000003815295
 21
152.8500004805665
 31
0.0
  0
LINE
  5
196
330
6A
100
AcDbEntity
  8
0
  6
Continuous
 62
     7
100
AcDbLine
 10
-99.00000038152953
 20
152.8500004805359
 30
0.0
 11
-122.2000003815295
 21
152.8500004805617
 31
0.0
  0
LINE
  5
197
330
6A
100
AcDbEntity
  8
0
  6
Continuous
 62
     7
100
AcDbLine
 10
-116.6554131048588
 20
204.514431543043
 30
0.0
 11
-110.6000003814665
 21
204.8500004805488
 31
0.0
  0
LINE
  5
198
330
6A
100
AcDbEntity
  8
0
  6
Continuous
 62
     7
100
AcDbLine
 10
-118.4145584220284
 20
202.6264969426545
 30
0.0
 11
-118.6432612819262
 21
203.7024593034536
 31
0.0
  0
LINE
  5
199
330
6A
100
AcDbEntity
  8
0
  6
Continuous
 62
     7
100
AcDbLine
 10
-118.6432612819262
 20
203.7024593034536
 30
0.0
 11
-119.1078813922763
 21
203.6037012503148
 31
0.0
  0
LINE
  5
19A
330
6A
100
AcDbEntity
  8
0
  6
Continuous
 62
     7
100
AcDbLine
 10
-118.9089791361392
 20
204.215859449535
 30
0.0
 11
-119.1078813922763
 21
203.6037012503148
 31
0.0
  0
LINE
  5
19B
330
6A
100
AcDbEntity
  8
0
  6
Continuous
 62
     7
100
AcDbLine
 10
-118.9089791361392
 20
204.215859449535
 30
0.0
 11
-116.6554131048588
 21
204.514431543043
 31
0.0
  0
LINE
  5
19C
330
6A
100
AcDbEntity
  8
0
  6
Continuous
 62
     7
100
AcDbLine
 10
-124.9523133066562
 20
202.3614288976794
 30
0.0
 11
-124.7236104467583
 21
201.2854665368803
 31
0.0
  0
LINE
  5
19D
330
6A
100
AcDbEntity
  8
0
  6
Continuous
 62
     7
100
AcDbLine
 10
-124.4876931963103
 20
202.4601869508248
 30
0.0
 11
-124.9183866198988
 21
202.9385204571153
 31
0.0
  0
LINE
  5
19E
330
6A
100
AcDbEntity
  8
0
  6
Continuous
 62
     7
100
AcDbLine
 10
-124.4876931963103
 20
202.4601869508248
 30
0.0
 11
-124.9523133066562
 21
202.3614288976794
 31
0.0
  0
LINE
  5
19F
330
6A
100
AcDbEntity
  8
0
  6
Continuous
 62
     7
100
AcDbLine
 10
-130.6157884603281
 20
201.0542180720386
 30
0.0
 11
-124.9183866198988
 21
202.9385204571153
 31
0.0
  0
LINE
  5
1A0
330
6A
100
AcDbEntity
  8
0
  6
Continuous
 62
     7
100
AcDbLine
 10
-92.80342663034853
 20
201.8656228611347
 30
0.0
 11
-86.86419043466212
 21
199.417673346391
 31
0.0
  0
LINE
  5
1A1
330
6A
100
AcDbEntity
  8
0
  6
Continuous
 62
     7
100
AcDbLine
 10
-98.61366430751168
 20
203.5161606172453
 30
0.0
 11
-92.80342663034853
 21
201.8656228611347
 31
0.0
  0
LINE
  5
1A2
330
6A
100
AcDbEntity
  8
0
  6
Continuous
 62
     7
100
AcDbLine
 10
-104.5700229300046
 20
204.5149582094927
 30
0.0
 11
-98.61366430751168
 21
203.5161606172453
 31
0.0
  0
LINE
  5
1A3
330
6A
100
AcDbEntity
  8
0
  6
Continuous
 62
     7
100
AcDbLine
 10
-110.6000003814665
 20
204.8500004805488
 30
0.0
 11
-104.5700229300046
 21
204.5149582094927
 31
0.0
  0
LINE
  5
1A4
330
6A
100
AcDbEntity
  8
0
  6
Continuous
 62
     7
100
AcDbLine
 10
-124.7236104467583
 20
201.2854665368803
 30
0.0
 11
-118.4145584220284
 21
202.6264969426545
 31
0.0
  0
LINE
  5
1A5
330
6A
100
AcDbEntity
  8
0
  6
Continuous
 62
     7
100
AcDbLine
 10
-130.6157884603281
 20
201.0542180720386
 30
0.0
 11
-131.2834618884263
 21
195.4883436961649
 31
0.0
  0
LINE
  5
1A6
330
6A
100
AcDbEntity
  8
0
  6
Continuous
 62
     7
100
AcDbLine
 10
-86.86419043466212
 20
199.417673346391
 30
0.0
 11
-86.58856112160079
 21
195.0576488758776
 31
0.0
  0
LINE
  5
1A7
330
6A
100
AcDbEntity
  8
0
  6
Continuous
 62
     7
100
AcDbLine
 10
-131.5000003814847
 20
190.0500004805684
 30
0.0
 11
-131.4023291302326
 21
186.3959770134112
 31
0.0
  0
LINE
  5
1A8
330
6A
100
AcDbEntity
  8
0
  6
Continuous
 62
     7
100
AcDbLine
 10
-86.50000038148731
 20
190.850000480522
 30
0.0
 11
-86.55124345000624
 21
187.6490650155369
 31
0.0
  0
LINE
  5
1A9
330
6A
100
AcDbEntity
  8
0
  6
Continuous
 62
     7
100
AcDbLine
 10
-131.2834618884263
 20
195.4883436961649
 30
0.0
 11
-131.5000003814847
 21
190.0500004805684
 31
0.0
  0
LINE
  5
1AA
330
6A
100
AcDbEntity
  8
0
  6
Continuous
 62
     7
100
AcDbLine
 10
-86.58856112160079
 20
195.0576488758776
 30
0.0
 11
-86.50000038148731
 21
190.850000480522
 31
0.0
  0
LINE
  5
1AB
330
6A
100
AcDbEntity
  8
0
  6
Continuous
 62
     7
100
AcDbLine
 10
-96.20000038151252
 20
168.1500004805356
 30
0.0
 11
-94.93554949063612
 21
168.59818834511
 31
0.0
  0
LINE
  5
1AC
330
6A
100
AcDbEntity
  8
0
  6
Continuous
 62
     7
100
AcDbLine
 10
-94.93554949063612
 20
168.59818834511
 30
0.0
 11
-92.71128370706194
 21
175.87343390749
 31
0.0
  0
LINE
  5
1AD
330
6A
100
AcDbEntity
  8
0
  6
Continuous
 62
     7
100
AcDbLine
 10
-86.55124345000624
 20
187.6490650155369
 30
0.0
 11
-86.70492013851441
 21
184.4514100656588
 31
0.0
  0
LINE
  5
1AE
330
6A
100
AcDbEntity
  8
0
  6
Continuous
 62
     7
100
AcDbLine
 10
-131.4023291302326
 20
186.3959770134112
 30
0.0
 11
-131.1095943142849
 21
182.7523890153837
 31
0.0
  0
LINE
  5
1AF
330
6A
100
AcDbEntity
  8
0
  6
Continuous
 62
     7
100
AcDbLine
 10
-129.0773199833713
 20
179.8500004805292
 30
0.0
 11
-131.1095943142849
 21
182.7523890153837
 31
0.0
  0
LINE
  5
1B0
330
6A
100
AcDbEntity
  8
0
  6
Continuous
 62
     7
100
AcDbLine
 10
-129.0773199833713
 20
179.8500004805292
 30
0.0
 11
-126.5000003815119
 21
168.6864028047012
 31
0.0
  0
LINE
  5
1B1
330
6A
100
AcDbEntity
  8
0
  6
Continuous
 62
     7
100
AcDbLine
 10
-86.70492013851441
 20
184.4514100656588
 30
0.0
 11
-92.71128370706194
 21
175.87343390749
 31
0.0
  0
ENDBLK
  5
6C
330
6A
100
AcDbEntity
  8
0
100
AcDbBlockEnd
  0
BLOCK
  5
6F
330
6D
100
AcDbEntity
  8
0
100
AcDbBlockBegin
  2
Vordans1
 70
     0
 10
-109.000000000018
 20
174.4500005720383
 30
0.0
  3
Vordans1
  1

  0
INSERT
  5
6E
330
6D
100
AcDbEntity
  8
0
100
AcDbBlockReference
  2
CB_PT_BRIDGE-select__6
 10
-131.5000003814847
 20
144.050000480535
 30
0.0
  0
MTEXT
  5
1B2
330
6D
100
AcDbEntity
  8
1
 62
     6
100
AcDbMText
 10
-109.0000000000181
 20
139.0499999998087
 30
0.0
 40
5.0
 41
0.0
 71
     2
 72
     1
  1
 
  7
CONVERTER_11
 73
     1
 44
1.32052821128451
  0
DIMENSION
  5
1BD
330
6D
100
AcDbEntity
  8
1
100
AcDbDimension
  2
*D18
 10
-126.5000003815295
 20
134.032257559853
 30
0.0
 11
-110.238469684858
 21
137.457257559853
 31
0.0
 70
    32
  1
<>
 71
     5
 42
-1.0
 53
0.00013888888889
  3
ME10_DIM_11
100
AcDbAlignedDimension
 13
-96.20000038152952
 23
152.8500004805328
 33
0.0
 14
-126.5000003815295
 24
152.8500004805665
 34
0.0
100
AcDbRotatedDimension
  0
DIMENSION
  5
1C8
330
6D
100
AcDbEntity
  8
1
100
AcDbDimension
  2
*D19
 10
-131.5000003814847
 20
126.767335452752
 30
0.0
 11
-110.554335863428
 21
130.017335452752
 31
0.0
 70
    32
  1
<>
 71
     5
 42
-1.0
 53
0.00013888888889
  3
ME10_DIM_12
100
AcDbAlignedDimension
 13
-86.50000038148731
 23
190.850000480522
 33
0.0
 14
-131.5000003814847
 24
190.0500004805684
 34
0.0
100
AcDbRotatedDimension
  0
DIMENSION
  5
1D3
330
6D
100
AcDbEntity
  8
1
100
AcDbDimension
  2
*D20
 10
-140.088731984966
 20
152.8500004805617
 30
0.0
 11
-143.338731984966
 21
180.446651417087
 31
0.0
 70
    32
  1
<>
 71
     5
 42
-1.0
 53
90.0
  3
ME10_DIM_13
100
AcDbAlignedDimension
 13
-110.6000003814665
 23
204.8500004805488
 33
0.0
 14
-122.2000003815295
 24
152.8500004805617
 34
0.0
 50
90.0
100
AcDbRotatedDimension
  0
DIMENSION
  5
1DE
330
6D
100
AcDbEntity
  8
1
100
AcDbDimension
  2
*D21
 10
-148.088731984966
 20
144.0500004805617
 30
0.0
 11
-151.513731984966
 21
178.412838777438
 31
0.0
 70
    32
  1
<>
 71
     5
 42
-1.0
 53
90.0
  3
ME10_DIM_14
100
AcDbAlignedDimension
 13
-110.6000003814665
 23
204.8500004805488
 33
0.0
 14
-122.2000003815393
 24
144.0500004805617
 34
0.0
 50
90.0
100
AcDbRotatedDimension
  0
ENDBLK
  5
70
330
6D
100
AcDbEntity
  8
0
100
AcDbBlockEnd
  0
BLOCK
  5
72
330
71
100
AcDbEntity
  8
0
100
AcDbBlockBegin
  2
_rahmen
 70
     0
 10
62.50000019076033
 20
23.40000024036749
 30
0.0
  3
_rahmen
  1

  0
LINE
  5
1DF
330
71
100
AcDbEntity
  8
1
  6
Continuous
 62
     6
100
AcDbLine
 10
-67.04480433598968
 20
53.9000002403676
 30
0.0
 11
62.50000019076202
 21
53.9000002403676
 31
0.0
  0
LINE
  5
1E0
330
71
100
AcDbEntity
  8
1
  6
Continuous
 62
     7
100
AcDbLine
 10
-48.84480433598966
 20
32.6500002403676
 30
0.0
 11
-30.64480433598976
 21
32.6500002403676
 31
0.0
  0
LINE
  5
1E1
330
71
100
AcDbEntity
  8
1
  6
Continuous
 62
     6
100
AcDbLine
 10
-48.84480433598966
 20
28.4000002403676
 30
0.0
 11
-67.04480433598968
 21
28.40000024036749
 31
0.0
  0
LINE
  5
1E2
330
71
100
AcDbEntity
  8
1
  6
Continuous
 62
     7
100
AcDbLine
 10
-48.84480433598966
 20
32.6500002403676
 30
0.0
 11
-48.84480433598966
 21
28.4000002403676
 31
0.0
  0
LINE
  5
1E3
330
71
100
AcDbEntity
  8
1
  6
Continuous
 62
     7
100
AcDbLine
 10
-30.64480433598976
 20
32.6500002403676
 30
0.0
 11
-30.64480433598976
 21
28.40000024036749
 31
0.0
  0
LINE
  5
1E4
330
71
100
AcDbEntity
  8
1
  6
Continuous
 62
     7
100
AcDbLine
 10
-67.04480433598968
 20
32.65000024036749
 30
0.0
 11
-67.04480433598968
 21
28.40000024036749
 31
0.0
  0
LINE
  5
1E5
330
71
100
AcDbEntity
  8
1
  6
Continuous
 62
     7
100
AcDbLine
 10
-67.04480433598968
 20
32.65000024036749
 30
0.0
 11
-48.84480433598966
 21
32.6500002403676
 31
0.0
  0
LINE
  5
1E6
330
71
100
AcDbEntity
  8
1
  6
Continuous
 62
     2
100
AcDbLine
 10
-57.80814944942708
 20
52.02500024036752
 30
0.0
 11
-57.80814944942708
 21
47.02500024036752
 31
0.0
  0
LINE
  5
1E7
330
71
100
AcDbEntity
  8
1
  6
Continuous
 62
     2
100
AcDbLine
 10
-57.80814944942708
 20
47.02500024036752
 30
0.0
 11
-62.80814944942708
 21
48.27500024036752
 31
0.0
  0
LINE
  5
1E8
330
71
100
AcDbEntity
  8
1
  6
Continuous
 62
     2
100
AcDbLine
 10
-62.80814944942708
 20
48.27500024036752
 30
0.0
 11
-62.80814944942708
 21
50.77500024036752
 31
0.0
  0
LINE
  5
1E9
330
71
100
AcDbEntity
  8
1
  6
Continuous
 62
     2
100
AcDbLine
 10
-62.80814944942708
 20
50.77500024036752
 30
0.0
 11
-57.80814944942708
 21
52.02500024036752
 31
0.0
  0
LINE
  5
1EA
330
71
100
AcDbEntity
  8
1
  6
Continuous
 62
     6
100
AcDbLine
 10
-189.4999998092379
 20
28.4000002403676
 30
0.0
 11
-224.4999998092378
 21
28.4000002403676
 31
0.0
  0
LINE
  5
1EB
330
71
100
AcDbEntity
  8
1
  6
Continuous
 62
     6
100
AcDbLine
 10
62.50000019076202
 20
45.4000002403676
 30
0.0
 11
62.50000019076163
 21
36.9000002403676
 31
0.0
  0
LINE
  5
1EC
330
71
100
AcDbEntity
  8
1
  6
Continuous
 62
     6
100
AcDbLine
 10
-30.64480433598976
 20
28.40000024036749
 30
0.0
 11
-30.99999980923968
 21
28.4000002403676
 31
0.0
  0
LINE
  5
1ED
330
71
100
AcDbEntity
  8
1
  6
Continuous
 62
     6
100
AcDbLine
 10
-183.2999998092399
 20
28.40000024036749
 30
0.0
 11
-189.4999998092379
 21
28.4000002403676
 31
0.0
  0
LINE
  5
1EE
330
71
100
AcDbEntity
  8
1
  6
Continuous
 62
     7
100
AcDbLine
 10
-30.64480433598976
 20
45.4000002403676
 30
0.0
 11
-30.64480433598976
 21
32.6500002403676
 31
0.0
  0
LINE
  5
1EF
330
71
100
AcDbEntity
  8
1
  6
Continuous
 62
     7
100
AcDbLine
 10
-67.04480433598968
 20
45.4000002403676
 30
0.0
 11
-67.04480433598968
 21
32.65000024036749
 31
0.0
  0
LINE
  5
1F0
330
71
100
AcDbEntity
  8
1
  6
Continuous
 62
     6
100
AcDbLine
 10
-80.99999980923965
 20
28.4000002403676
 30
0.0
 11
-130.9999998092399
 21
28.4000002403676
 31
0.0
  0
LINE
  5
1F1
330
71
100
AcDbEntity
  8
1
  6
Continuous
 62
     6
100
AcDbLine
 10
-183.2999998092399
 20
28.40000024036749
 30
0.0
 11
-180.9999998092397
 21
28.4000002403676
 31
0.0
  0
LINE
  5
1F2
330
71
100
AcDbEntity
  8
1
  6
Continuous
 62
     6
100
AcDbLine
 10
-30.64480433598976
 20
28.40000024036749
 30
0.0
 11
19.00000019076032
 21
28.4000002403676
 31
0.0
  0
LINE
  5
1F3
330
71
100
AcDbEntity
  8
1
  6
Continuous
 62
     6
100
AcDbLine
 10
62.50000019076033
 20
28.4000002403676
 30
0.0
 11
62.50000019076163
 21
36.9000002403676
 31
0.0
  0
LINE
  5
1F4
330
71
100
AcDbEntity
  8
1
  6
Continuous
 62
     2
100
AcDbLine
 10
-229.4999998092387
 20
28.4000002403676
 30
0.0
 11
-229.4999998092387
 21
23.40000024036749
 31
0.0
  0
LINE
  5
1F5
330
71
100
AcDbEntity
  8
1
  6
Continuous
 62
     2
100
AcDbLine
 10
-224.4999998092378
 20
28.4000002403676
 30
0.0
 11
-229.4999998092387
 21
28.4000002403676
 31
0.0
  0
LINE
  5
1F6
330
71
100
AcDbEntity
  8
1
  6
Continuous
 62
     2
100
AcDbLine
 10
-224.4999998092378
 20
23.40000024036749
 30
0.0
 11
-180.9999998092397
 21
23.40000024036749
 31
0.0
  0
LINE
  5
1F7
330
71
100
AcDbEntity
  8
1
  6
Continuous
 62
     2
100
AcDbLine
 10
-224.4999998092378
 20
28.4000002403676
 30
0.0
 11
-224.4999998092378
 21
23.40000024036749
 31
0.0
  0
LINE
  5
1F8
330
71
100
AcDbEntity
  8
1
  6
Continuous
 62
     2
100
AcDbLine
 10
19.00000019076032
 20
23.40000024036749
 30
0.0
 11
-30.99999980923968
 21
23.40000024036749
 31
0.0
  0
LINE
  5
1F9
330
71
100
AcDbEntity
  8
1
  6
Continuous
 62
     2
100
AcDbLine
 10
19.00000019076032
 20
23.40000024036749
 30
0.0
 11
19.00000019076032
 21
28.4000002403676
 31
0.0
  0
LINE
  5
1FA
330
71
100
AcDbEntity
  8
1
  6
Continuous
 62
     2
100
AcDbLine
 10
-30.99999980923968
 20
23.40000024036749
 30
0.0
 11
-30.99999980923968
 21
28.4000002403676
 31
0.0
  0
LINE
  5
1FB
330
71
100
AcDbEntity
  8
1
  6
Continuous
 62
     2
100
AcDbLine
 10
-80.99999980923965
 20
23.40000024036749
 30
0.0
 11
-30.99999980923968
 21
23.40000024036749
 31
0.0
  0
LINE
  5
1FC
330
71
100
AcDbEntity
  8
1
  6
Continuous
 62
     2
100
AcDbLine
 10
-80.99999980923965
 20
23.40000024036749
 30
0.0
 11
-80.99999980923965
 21
28.4000002403676
 31
0.0
  0
LINE
  5
1FD
330
71
100
AcDbEntity
  8
1
  6
Continuous
 62
     2
100
AcDbLine
 10
-130.9999998092399
 20
23.40000024036749
 30
0.0
 11
-80.99999980923965
 21
23.40000024036749
 31
0.0
  0
LINE
  5
1FE
330
71
100
AcDbEntity
  8
1
  6
Continuous
 62
     2
100
AcDbLine
 10
-130.9999998092399
 20
23.40000024036749
 30
0.0
 11
-130.9999998092399
 21
28.4000002403676
 31
0.0
  0
LINE
  5
1FF
330
71
100
AcDbEntity
  8
1
  6
Continuous
 62
     2
100
AcDbLine
 10
-180.9999998092397
 20
23.40000024036749
 30
0.0
 11
-130.9999998092399
 21
23.40000024036749
 31
0.0
  0
LINE
  5
200
330
71
100
AcDbEntity
  8
1
  6
Continuous
 62
     2
100
AcDbLine
 10
-180.9999998092397
 20
23.40000024036749
 30
0.0
 11
-180.9999998092397
 21
28.4000002403676
 31
0.0
  0
LINE
  5
201
330
71
100
AcDbEntity
  8
1
  6
Continuous
 62
     6
100
AcDbLine
 10
-224.499999809238
 20
78.40000024036772
 30
0.0
 11
-224.4999998092378
 21
28.4000002403676
 31
0.0
  0
LINE
  5
202
330
71
100
AcDbEntity
  8
1
  6
Continuous
 62
     2
100
AcDbLine
 10
-229.4999998092387
 20
78.40000024036772
 30
0.0
 11
-229.4999998092387
 21
28.4000002403676
 31
0.0
  0
LINE
  5
203
330
71
100
AcDbEntity
  8
1
  6
Continuous
 62
     2
100
AcDbLine
 10
-229.4999998092387
 20
78.40000024036772
 30
0.0
 11
-224.499999809238
 21
78.40000024036772
 31
0.0
  0
LINE
  5
204
330
71
100
AcDbEntity
  8
1
  6
Continuous
 62
     6
100
AcDbLine
 10
-224.4999998092382
 20
128.4000002403675
 30
0.0
 11
-224.499999809238
 21
78.40000024036772
 31
0.0
  0
LINE
  5
205
330
71
100
AcDbEntity
  8
1
  6
Continuous
 62
     2
100
AcDbLine
 10
-229.4999998092387
 20
128.4000002403675
 30
0.0
 11
-229.4999998092387
 21
78.40000024036772
 31
0.0
  0
LINE
  5
206
330
71
100
AcDbEntity
  8
1
  6
Continuous
 62
     2
100
AcDbLine
 10
-229.4999998092387
 20
128.4000002403675
 30
0.0
 11
-224.4999998092382
 21
128.4000002403675
 31
0.0
  0
LINE
  5
207
330
71
100
AcDbEntity
  8
1
  6
Continuous
 62
     6
100
AcDbLine
 10
-224.4999998092387
 20
178.4000002403676
 30
0.0
 11
-224.4999998092382
 21
128.4000002403675
 31
0.0
  0
LINE
  5
208
330
71
100
AcDbEntity
  8
1
  6
Continuous
 62
     2
100
AcDbLine
 10
-229.4999998092387
 20
178.4000002403676
 30
0.0
 11
-229.4999998092387
 21
128.4000002403675
 31
0.0
  0
LINE
  5
209
330
71
100
AcDbEntity
  8
1
  6
Continuous
 62
     2
100
AcDbLine
 10
-229.4999998092387
 20
178.4000002403676
 30
0.0
 11
-224.4999998092387
 21
178.4000002403676
 31
0.0
  0
LINE
  5
20A
330
71
100
AcDbEntity
  8
1
  6
Continuous
 62
     6
100
AcDbLine
 10
-224.4999998092387
 20
213.4000002403676
 30
0.0
 11
-224.4999998092387
 21
178.4000002403676
 31
0.0
  0
LINE
  5
20B
330
71
100
AcDbEntity
  8
1
  6
Continuous
 62
     2
100
AcDbLine
 10
-229.4999998092387
 20
233.4000002403676
 30
0.0
 11
-229.4999998092387
 21
178.4000002403676
 31
0.0
  0
LINE
  5
20C
330
71
100
AcDbEntity
  8
1
  6
Continuous
 62
     2
100
AcDbLine
 10
-229.4999998092387
 20
23.40000024036749
 30
0.0
 11
-224.4999998092378
 21
23.40000024036749
 31
0.0
  0
LINE
  5
20D
330
71
100
AcDbEntity
  8
1
  6
Continuous
 62
     2
100
AcDbLine
 10
-80.99999980923965
 20
233.4000002403676
 30
0.0
 11
-80.99999980923965
 21
224.1913083956663
 31
0.0
  0
LINE
  5
20E
330
71
100
AcDbEntity
  8
1
  6
Continuous
 62
     2
100
AcDbLine
 10
-80.99999980923965
 20
233.4000002403676
 30
0.0
 11
-229.4999998092387
 21
233.4000002403676
 31
0.0
  0
LINE
  5
20F
330
71
100
AcDbEntity
  8
1
  6
Continuous
 62
     2
100
AcDbLine
 10
67.50000019075932
 20
28.4000002403676
 30
0.0
 11
67.50000019075932
 21
78.40000024036772
 31
0.0
  0
LINE
  5
210
330
71
100
AcDbEntity
  8
1
  6
Continuous
 62
     2
100
AcDbLine
 10
67.50000019075932
 20
178.4000002403676
 30
0.0
 11
67.50000019075932
 21
233.4000002403676
 31
0.0
  0
LINE
  5
211
330
71
100
AcDbEntity
  8
1
  6
Continuous
 62
     6
100
AcDbLine
 10
62.50000019075952
 20
178.4000002403676
 30
0.0
 11
62.50000019075932
 21
213.4000002403676
 31
0.0
  0
LINE
  5
212
330
71
100
AcDbEntity
  8
1
  6
Continuous
 62
     2
100
AcDbLine
 10
62.50000019075952
 20
178.4000002403676
 30
0.0
 11
67.50000019075932
 21
178.4000002403676
 31
0.0
  0
LINE
  5
213
330
71
100
AcDbEntity
  8
1
  6
Continuous
 62
     2
100
AcDbLine
 10
67.50000019075932
 20
128.4000002403675
 30
0.0
 11
67.50000019075932
 21
178.4000002403676
 31
0.0
  0
LINE
  5
214
330
71
100
AcDbEntity
  8
1
  6
Continuous
 62
     6
100
AcDbLine
 10
62.50000019076073
 20
128.4000002403675
 30
0.0
 11
62.50000019075952
 21
178.4000002403676
 31
0.0
  0
LINE
  5
215
330
71
100
AcDbEntity
  8
1
  6
Continuous
 62
     2
100
AcDbLine
 10
62.50000019076073
 20
128.4000002403675
 30
0.0
 11
67.50000019075932
 21
128.4000002403675
 31
0.0
  0
LINE
  5
216
330
71
100
AcDbEntity
  8
1
  6
Continuous
 62
     2
100
AcDbLine
 10
67.50000019075932
 20
78.40000024036772
 30
0.0
 11
67.50000019075932
 21
128.4000002403675
 31
0.0
  0
LINE
  5
217
330
71
100
AcDbEntity
  8
1
  6
Continuous
 62
     6
100
AcDbLine
 10
62.50000019076123
 20
78.40000024036772
 30
0.0
 11
62.50000019076073
 21
128.4000002403675
 31
0.0
  0
LINE
  5
218
330
71
100
AcDbEntity
  8
1
  6
Continuous
 62
     2
100
AcDbLine
 10
62.50000019076123
 20
78.40000024036772
 30
0.0
 11
67.50000019075932
 21
78.40000024036772
 31
0.0
  0
LINE
  5
219
330
71
100
AcDbEntity
  8
1
  6
Continuous
 62
     6
100
AcDbLine
 10
62.50000019075932
 20
213.4000002403676
 30
0.0
 11
-224.4999998092387
 21
213.4000002403676
 31
0.0
  0
LINE
  5
21A
330
71
100
AcDbEntity
  8
1
  6
Continuous
 62
     2
100
AcDbLine
 10
67.50000019075932
 20
233.4000002403676
 30
0.0
 11
-80.99999980923965
 21
233.4000002403676
 31
0.0
  0
LINE
  5
21B
330
71
100
AcDbEntity
  8
1
  6
Continuous
 62
     6
100
AcDbLine
 10
62.50000019076202
 20
45.4000002403676
 30
0.0
 11
62.50000019076123
 21
78.40000024036772
 31
0.0
  0
LINE
  5
21C
330
71
100
AcDbEntity
  8
1
  6
Continuous
 62
     2
100
AcDbLine
 10
62.50000019076033
 20
23.40000024036749
 30
0.0
 11
19.00000019076032
 21
23.40000024036749
 31
0.0
  0
LINE
  5
21D
330
71
100
AcDbEntity
  8
1
  6
Continuous
 62
     2
100
AcDbLine
 10
67.50000019075932
 20
23.40000024036749
 30
0.0
 11
62.50000019076033
 21
23.40000024036749
 31
0.0
  0
LINE
  5
21E
330
71
100
AcDbEntity
  8
1
  6
Continuous
 62
     2
100
AcDbLine
 10
67.50000019075932
 20
23.40000024036749
 30
0.0
 11
67.50000019075932
 21
28.4000002403676
 31
0.0
  0
LINE
  5
21F
330
71
100
AcDbEntity
  8
1
  6
Continuous
 62
     6
100
AcDbLine
 10
-67.04480433598968
 20
45.4000002403676
 30
0.0
 11
-30.64480433598976
 21
45.4000002403676
 31
0.0
  0
LINE
  5
220
330
71
100
AcDbEntity
  8
1
  6
Continuous
 62
     2
100
AcDbLine
 10
62.50000019076033
 20
28.4000002403676
 30
0.0
 11
62.50000019076033
 21
23.40000024036749
 31
0.0
  0
LINE
  5
221
330
71
100
AcDbEntity
  8
1
  6
Continuous
 62
     2
100
AcDbLine
 10
62.50000019076033
 20
28.4000002403676
 30
0.0
 11
67.50000019075932
 21
28.4000002403676
 31
0.0
  0
LINE
  5
222
330
71
100
AcDbEntity
  8
1
  6
Continuous
 62
     6
100
AcDbLine
 10
-30.99999980923968
 20
28.4000002403676
 30
0.0
 11
-48.84480433598966
 21
28.4000002403676
 31
0.0
  0
LINE
  5
223
330
71
100
AcDbEntity
  8
1
  6
Continuous
 62
     6
100
AcDbLine
 10
19.00000019076032
 20
28.4000002403676
 30
0.0
 11
62.50000019076033
 21
28.4000002403676
 31
0.0
  0
LINE
  5
224
330
71
100
AcDbEntity
  8
1
  6
Continuous
 62
     6
100
AcDbLine
 10
-130.9999998092399
 20
28.4000002403676
 30
0.0
 11
-136.0448043359897
 21
28.4000002403676
 31
0.0
  0
LINE
  5
225
330
71
100
AcDbEntity
  8
1
  6
Continuous
 62
     6
100
AcDbLine
 10
-80.99999980923965
 20
28.4000002403676
 30
0.0
 11
-67.04480433598968
 21
28.40000024036749
 31
0.0
  0
LINE
  5
226
102
{ACAD_REACTORS
330
310
330
311
102
}
330
71
100
AcDbEntity
  8
0
  6
Continuous
 62
     2
100
AcDbLine
 10
-59.53017839384287
 20
40.47251499657972
 30
0.0
 11
-59.53017839384287
 21
41.07805028508651
 31
0.0
  0
LINE
  5
227
102
{ACAD_REACTORS
330
310
330
311
102
}
330
71
100
AcDbEntity
  8
0
  6
Continuous
 62
     2
100
AcDbLine
 10
-59.53017839384287
 20
37.67238038994842
 30
0.0
 11
-59.53017839384287
 21
38.2542317966435
 31
0.0
  0
LINE
  5
228
102
{ACAD_REACTORS
330
312
330
313
102
}
330
71
100
AcDbEntity
  8
0
  6
Continuous
 62
     2
100
AcDbLine
 10
-36.90069195836367
 20
37.9620444580714
 30
0.0
 11
-36.90069195836367
 21
35.69350024038391
 31
0.0
  0
LINE
  5
229
102
{ACAD_REACTORS
330
312
330
313
102
}
330
71
100
AcDbEntity
  8
0
  6
Continuous
 62
     2
100
AcDbLine
 10
-38.28174573735126
 20
38.74730976419451
 30
0.0
 11
-34.89680021872258
 21
38.747309764195
 31
0.0
  0
LINE
  5
22A
102
{ACAD_REACTORS
330
312
330
313
102
}
330
71
100
AcDbEntity
  8
0
  6
Continuous
 62
     2
100
AcDbLine
 10
-34.89680021872258
 20
37.9620444580714
 30
0.0
 11
-34.89680021872258
 21
38.747309764195
 31
0.0
  0
LINE
  5
22B
102
{ACAD_REACTORS
330
312
330
313
102
}
330
71
100
AcDbEntity
  8
0
  6
Continuous
 62
     2
100
AcDbLine
 10
-35.70789925619596
 20
37.9620444580714
 30
0.0
 11
-34.89680021872258
 21
37.9620444580714
 31
0.0
  0
LINE
  5
22C
102
{ACAD_REACTORS
330
312
330
313
102
}
330
71
100
AcDbEntity
  8
0
  6
Continuous
 62
     2
100
AcDbLine
 10
-35.70789925619596
 20
35.69350024038391
 30
0.0
 11
-35.70789925619596
 21
37.9620444580714
 31
0.0
  0
LINE
  5
22D
102
{ACAD_REACTORS
330
312
330
313
102
}
330
71
100
AcDbEntity
  8
0
  6
Continuous
 62
     2
100
AcDbLine
 10
-36.90069195836367
 20
35.69350024038391
 30
0.0
 11
-35.70789925619596
 21
35.69350024038391
 31
0.0
  0
LINE
  5
22E
102
{ACAD_REACTORS
330
308
330
309
102
}
330
71
100
AcDbEntity
  8
0
  6
Continuous
 62
     2
100
AcDbLine
 10
-37.59728289642817
 20
42.1065002403694
 30
0.0
 11
-39.00000711417746
 21
42.1065002403694
 31
0.0
  0
LINE
  5
22F
102
{ACAD_REACTORS
330
308
330
309
102
}
330
71
100
AcDbEntity
  8
0
  6
Continuous
 62
     2
100
AcDbLine
 10
-37.59728289642817
 20
42.1065002403694
 30
0.0
 11
-36.99611537453637
 21
41.42667691881391
 31
0.0
  0
LINE
  5
230
102
{ACAD_REACTORS
330
308
330
309
102
}
330
71
100
AcDbEntity
  8
0
  6
Continuous
 62
     2
100
AcDbLine
 10
-36.99611537453637
 20
41.42667691881391
 30
0.0
 11
-36.39494785264358
 21
42.1065002403694
 31
0.0
  0
LINE
  5
231
102
{ACAD_REACTORS
330
308
330
309
102
}
330
71
100
AcDbEntity
  8
0
  6
Continuous
 62
     2
100
AcDbLine
 10
-36.29475326566288
 20
40.6335497103332
 30
0.0
 11
-34.99222363489636
 21
42.1065002403694
 31
0.0
  0
LINE
  5
232
102
{ACAD_REACTORS
330
308
330
309
102
}
330
71
100
AcDbEntity
  8
0
  6
Continuous
 62
     2
100
AcDbLine
 10
-36.29475326566288
 20
40.6335497103332
 30
0.0
 11
-34.89680021872258
 21
39.0526907165582
 31
0.0
  0
LINE
  5
233
102
{ACAD_REACTORS
330
308
330
309
102
}
330
71
100
AcDbEntity
  8
0
  6
Continuous
 62
     2
100
AcDbLine
 10
-36.29952443647088
 20
39.0526907165582
 30
0.0
 11
-34.89680021872258
 21
39.0526907165582
 31
0.0
  0
LINE
  5
234
102
{ACAD_REACTORS
330
308
330
309
102
}
330
71
100
AcDbEntity
  8
0
  6
Continuous
 62
     2
100
AcDbLine
 10
-36.99611537453637
 20
39.84042250185192
 30
0.0
 11
-36.29952443647088
 21
39.0526907165582
 31
0.0
  0
LINE
  5
235
102
{ACAD_REACTORS
330
306
330
307
102
}
330
71
100
AcDbEntity
  8
0
  6
Continuous
 62
     2
100
AcDbLine
 10
-40.45521421082006
 20
42.1065002403694
 30
0.0
 11
-39.21470980056716
 21
42.1065002403694
 31
0.0
  0
LINE
  5
236
102
{ACAD_REACTORS
330
306
330
307
102
}
330
71
100
AcDbEntity
  8
0
  6
Continuous
 62
     2
100
AcDbLine
 10
-39.21470980056716
 20
42.1065002403694
 30
0.0
 11
-39.21470980056716
 21
39.0526907165582
 31
0.0
  0
LINE
  5
237
102
{ACAD_REACTORS
330
306
330
307
102
}
330
71
100
AcDbEntity
  8
0
  6
Continuous
 62
     2
100
AcDbLine
 10
-40.45521421082006
 20
39.0526907165582
 30
0.0
 11
-40.45521421082006
 21
42.1065002403694
 31
0.0
  0
LINE
  5
238
102
{ACAD_REACTORS
330
304
330
305
102
}
330
71
100
AcDbEntity
  8
0
  6
Continuous
 62
     2
100
AcDbLine
 10
-41.92352429335767
 20
36.9150240499084
 30
0.0
 11
-41.62335905616527
 21
37.6828390158951
 31
0.0
  0
LINE
  5
239
102
{ACAD_REACTORS
330
304
330
305
102
}
330
71
100
AcDbEntity
  8
0
  6
Continuous
 62
     2
100
AcDbLine
 10
-42.40105989797849
 20
35.69350024038391
 30
0.0
 11
-42.18957984450267
 21
36.23446078460179
 31
0.0
  0
LINE
  5
23A
102
{ACAD_REACTORS
330
304
330
305
102
}
330
71
100
AcDbEntity
  8
0
  6
Continuous
 62
     2
100
AcDbLine
 10
-42.24361126129216
 20
38.747309764195
 30
0.0
 11
-43.64156430823147
 21
35.69350024038391
 31
0.0
  0
LINE
  5
23B
102
{ACAD_REACTORS
330
304
330
305
102
}
330
71
100
AcDbEntity
  8
0
  6
Continuous
 62
     2
100
AcDbLine
 10
-39.60515380409916
 20
35.69350024038391
 30
0.0
 11
-40.84565821435308
 21
35.69350024038391
 31
0.0
  0
LINE
  5
23C
102
{ACAD_REACTORS
330
304
330
305
102
}
330
71
100
AcDbEntity
  8
0
  6
Continuous
 62
     2
100
AcDbLine
 10
-42.18957984450267
 20
36.23446078460179
 30
0.0
 11
-41.05713826782886
 21
36.23446078460179
 31
0.0
  0
LINE
  5
23D
102
{ACAD_REACTORS
330
302
330
303
102
}
330
71
100
AcDbEntity
  8
0
  6
Continuous
 62
     2
100
AcDbLine
 10
-45.79907644741368
 20
37.9620444580714
 30
0.0
 11
-44.98797740993908
 21
37.9620444580714
 31
0.0
  0
LINE
  5
23E
102
{ACAD_REACTORS
330
302
330
303
102
}
330
71
100
AcDbEntity
  8
0
  6
Continuous
 62
     2
100
AcDbLine
 10
-42.98408567030006
 20
38.747309764195
 30
0.0
 11
-45.79907644741368
 21
38.747309764195
 31
0.0
  0
LINE
  5
23F
102
{ACAD_REACTORS
330
302
330
303
102
}
330
71
100
AcDbEntity
  8
0
  6
Continuous
 62
     2
100
AcDbLine
 10
-42.98408567030006
 20
37.9620444580714
 30
0.0
 11
-42.98408567030006
 21
38.747309764195
 31
0.0
  0
LINE
  5
240
102
{ACAD_REACTORS
330
302
330
303
102
}
330
71
100
AcDbEntity
  8
0
  6
Continuous
 62
     2
100
AcDbLine
 10
-43.79518470777256
 20
37.9620444580714
 30
0.0
 11
-42.98408567030006
 21
37.9620444580714
 31
0.0
  0
LINE
  5
241
102
{ACAD_REACTORS
330
302
330
303
102
}
330
71
100
AcDbEntity
  8
0
  6
Continuous
 62
     2
100
AcDbLine
 10
-43.79518470777256
 20
35.69350024038391
 30
0.0
 11
-43.79518470777256
 21
37.9620444580714
 31
0.0
  0
LINE
  5
242
102
{ACAD_REACTORS
330
300
330
301
102
}
330
71
100
AcDbEntity
  8
0
  6
Continuous
 62
     2
100
AcDbLine
 10
-43.12706986367456
 20
39.0526907165582
 30
0.0
 11
-43.12706986367456
 21
40.3614662267629
 31
0.0
  0
LINE
  5
243
102
{ACAD_REACTORS
330
300
330
301
102
}
330
71
100
AcDbEntity
  8
0
  6
Continuous
 62
     2
100
AcDbLine
 10
-44.31986256584108
 20
42.1065002403694
 30
0.0
 11
-44.31986256584108
 21
39.0526907165582
 31
0.0
  0
LINE
  5
244
102
{ACAD_REACTORS
330
300
330
301
102
}
330
71
100
AcDbEntity
  8
0
  6
Continuous
 62
     2
100
AcDbLine
 10
-43.12706986367456
 20
42.1065002403694
 30
0.0
 11
-44.31986256584108
 21
42.1065002403694
 31
0.0
  0
LINE
  5
245
102
{ACAD_REACTORS
330
300
330
301
102
}
330
71
100
AcDbEntity
  8
0
  6
Continuous
 62
     2
100
AcDbLine
 10
-41.88656545342056
 20
42.1065002403694
 30
0.0
 11
-41.88656545342056
 21
40.79772473016422
 31
0.0
  0
LINE
  5
246
102
{ACAD_REACTORS
330
2FE
330
2FF
102
}
330
71
100
AcDbEntity
  8
0
  6
Continuous
 62
     2
100
AcDbLine
 10
-49.56830138626077
 20
38.747309764195
 30
0.0
 11
-49.56830138626077
 21
35.69350024038391
 31
0.0
  0
LINE
  5
247
102
{ACAD_REACTORS
330
2FE
330
2FF
102
}
330
71
100
AcDbEntity
  8
0
  6
Continuous
 62
     2
100
AcDbLine
 10
-48.37550868409318
 20
38.747309764195
 30
0.0
 11
-49.56830138626077
 21
38.747309764195
 31
0.0
  0
LINE
  5
248
102
{ACAD_REACTORS
330
2FE
330
2FF
102
}
330
71
100
AcDbEntity
  8
0
  6
Continuous
 62
     2
100
AcDbLine
 10
-47.13500427384028
 20
35.69350024038391
 30
0.0
 11
-45.94221157167388
 21
35.69350024038391
 31
0.0
  0
LINE
  5
249
102
{ACAD_REACTORS
330
2FE
330
2FF
102
}
330
71
100
AcDbEntity
  8
0
  6
Continuous
 62
     2
100
AcDbLine
 10
-49.56830138626077
 20
35.69350024038391
 30
0.0
 11
-48.37550868409318
 21
35.69350024038391
 31
0.0
  0
LINE
  5
24A
102
{ACAD_REACTORS
330
30E
330
30F
102
}
330
71
100
AcDbEntity
  8
0
  6
Continuous
 62
     2
100
AcDbLine
 10
-45.89434893270166
 20
40.92860228118471
 30
0.0
 11
-45.89434893270166
 21
41.40848663492642
 31
0.0
  0
LINE
  5
24B
102
{ACAD_REACTORS
330
30E
330
30F
102
}
330
71
100
AcDbEntity
  8
0
  6
Continuous
 62
     2
100
AcDbLine
 10
-44.55842110627398
 20
40.92860228118471
 30
0.0
 11
-45.89434893270166
 21
40.92860228118471
 31
0.0
  0
LINE
  5
24C
102
{ACAD_REACTORS
330
30E
330
30F
102
}
330
71
100
AcDbEntity
  8
0
  6
Continuous
 62
     2
100
AcDbLine
 10
-44.55842110627398
 20
40.23058867574241
 30
0.0
 11
-44.55842110627398
 21
40.92860228118471
 31
0.0
  0
LINE
  5
24D
102
{ACAD_REACTORS
330
30E
330
30F
102
}
330
71
100
AcDbEntity
  8
0
  6
Continuous
 62
     2
100
AcDbLine
 10
-45.89434893270166
 20
40.23058867574241
 30
0.0
 11
-44.55842110627398
 21
40.23058867574241
 31
0.0
  0
LINE
  5
24E
102
{ACAD_REACTORS
330
2FC
330
2FD
102
}
330
71
100
AcDbEntity
  8
0
  6
Continuous
 62
     2
100
AcDbLine
 10
-49.37730362302858
 20
42.1065002403694
 30
0.0
 11
-49.37730362302858
 21
39.0526907165582
 31
0.0
  0
LINE
  5
24F
102
{ACAD_REACTORS
330
2FC
330
2FD
102
}
330
71
100
AcDbEntity
  8
0
  6
Continuous
 62
     2
100
AcDbLine
 10
-49.37730362302858
 20
39.0526907165582
 30
0.0
 11
-50.57009632519498
 21
39.0526907165582
 31
0.0
  0
LINE
  5
250
102
{ACAD_REACTORS
330
2FC
330
2FD
102
}
330
71
100
AcDbEntity
  8
0
  6
Continuous
 62
     2
100
AcDbLine
 10
-50.57009632519498
 20
39.0526907165582
 30
0.0
 11
-50.57009632519498
 21
40.18696282540202
 31
0.0
  0
LINE
  5
251
102
{ACAD_REACTORS
330
2FC
330
2FD
102
}
330
71
100
AcDbEntity
  8
0
  6
Continuous
 62
     2
100
AcDbLine
 10
-51.61975390310246
 20
39.0526907165582
 30
0.0
 11
-52.81254660526906
 21
39.0526907165582
 31
0.0
  0
LINE
  5
252
102
{ACAD_REACTORS
330
2FC
330
2FD
102
}
330
71
100
AcDbEntity
  8
0
  6
Continuous
 62
     2
100
AcDbLine
 10
-52.81254660526906
 20
42.1065002403694
 30
0.0
 11
-51.61975390310246
 21
42.1065002403694
 31
0.0
  0
LINE
  5
253
102
{ACAD_REACTORS
330
2FC
330
2FD
102
}
330
71
100
AcDbEntity
  8
0
  6
Continuous
 62
     2
100
AcDbLine
 10
-51.61975390310246
 20
42.1065002403694
 30
0.0
 11
-51.61975390310246
 21
41.0376669070348
 31
0.0
  0
LINE
  5
254
102
{ACAD_REACTORS
330
2FC
330
2FD
102
}
330
71
100
AcDbEntity
  8
0
  6
Continuous
 62
     2
100
AcDbLine
 10
-51.61975390310246
 20
41.0376669070348
 30
0.0
 11
-50.57009632519498
 21
41.0376669070348
 31
0.0
  0
LINE
  5
255
102
{ACAD_REACTORS
330
30A
330
30B
102
}
330
71
100
AcDbEntity
  8
0
  6
Continuous
 62
     2
100
AcDbLine
 10
-54.76872663682266
 20
41.4433943949293
 30
0.0
 11
-54.45143157528077
 21
41.4433943949293
 31
0.0
  0
LINE
  5
256
102
{ACAD_REACTORS
330
30A
330
30B
102
}
330
71
100
AcDbEntity
  8
0
  6
Continuous
 62
     2
100
AcDbLine
 10
-54.76872663682266
 20
40.73766674558709
 30
0.0
 11
-54.45143157528077
 21
40.73766674558709
 31
0.0
  0
LINE
  5
257
102
{ACAD_REACTORS
330
30A
330
30B
102
}
330
71
100
AcDbEntity
  8
0
  6
Continuous
 62
     2
100
AcDbLine
 10
-56.00923104707678
 20
42.1065002403694
 30
0.0
 11
-56.00923104707678
 21
39.0526907165582
 31
0.0
  0
LINE
  5
258
102
{ACAD_REACTORS
330
30A
330
30B
102
}
330
71
100
AcDbEntity
  8
0
  6
Continuous
 62
     2
100
AcDbLine
 10
-56.00923104707678
 20
42.1065002403694
 30
0.0
 11
-54.00995904904238
 21
42.1065002403694
 31
0.0
  0
LINE
  5
259
102
{ACAD_REACTORS
330
30A
330
30B
102
}
330
71
100
AcDbEntity
  8
0
  6
Continuous
 62
     2
100
AcDbLine
 10
-54.76872663682266
 20
39.99576895770201
 30
0.0
 11
-54.00995904904238
 21
39.99576895770201
 31
0.0
  0
LINE
  5
25A
102
{ACAD_REACTORS
330
310
330
311
102
}
330
71
100
AcDbEntity
  8
0
  6
Continuous
 62
     2
100
AcDbLine
 10
-62.10572708037347
 20
41.07822776173461
 30
0.0
 11
-62.10572708037347
 21
36.72177271901751
 31
0.0
  0
LINE
  5
25B
102
{ACAD_REACTORS
330
310
330
311
102
}
330
71
100
AcDbEntity
  8
0
  6
Continuous
 62
     2
100
AcDbLine
 10
-61.79001015729779
 20
41.39394468481081
 30
0.0
 11
-60.31417689628816
 21
41.39394468481081
 31
0.0
  0
LINE
  5
25C
102
{ACAD_REACTORS
330
310
330
311
102
}
330
71
100
AcDbEntity
  8
0
  6
Continuous
 62
     2
100
AcDbLine
 10
-59.99845997321157
 20
40.4742031426741
 30
0.0
 11
-59.99845997321157
 21
41.07822776173461
 31
0.0
  0
LINE
  5
25D
102
{ACAD_REACTORS
330
310
330
311
102
}
330
71
100
AcDbEntity
  8
0
  6
Continuous
 62
     2
100
AcDbLine
 10
-59.99845997321157
 20
36.72177271901751
 30
0.0
 11
-59.99845997321157
 21
38.25254365054911
 31
0.0
  0
LINE
  5
25E
102
{ACAD_REACTORS
330
310
330
311
102
}
330
71
100
AcDbEntity
  8
0
  6
Continuous
 62
     2
100
AcDbLine
 10
-56.91059274332747
 20
35.69350024038391
 30
0.0
 11
-62.38390483404427
 21
35.69350024038391
 31
0.0
  0
LINE
  5
25F
102
{ACAD_REACTORS
330
310
330
311
102
}
330
71
100
AcDbEntity
  8
0
  6
Continuous
 62
     2
100
AcDbLine
 10
-56.48634812794359
 20
41.68225562496741
 30
0.0
 11
-56.48634812794359
 21
36.1177448557672
 31
0.0
  0
LINE
  5
260
102
{ACAD_REACTORS
330
310
330
311
102
}
330
71
100
AcDbEntity
  8
0
  6
Continuous
 62
     2
100
AcDbLine
 10
-62.38390483404427
 20
42.10650024035121
 30
0.0
 11
-56.91059274332747
 21
42.10650024035121
 31
0.0
  0
LINE
  5
261
102
{ACAD_REACTORS
330
310
330
311
102
}
330
71
100
AcDbEntity
  8
0
  6
Continuous
 62
     2
100
AcDbLine
 10
-62.80814944942708
 20
41.68225562496741
 30
0.0
 11
-62.80814944942708
 21
36.1177448557672
 31
0.0
  0
LINE
  5
262
102
{ACAD_REACTORS
330
310
330
311
102
}
330
71
100
AcDbEntity
  8
0
  6
Continuous
 62
     2
100
AcDbLine
 10
-60.31417689628816
 20
36.4060557959408
 30
0.0
 11
-61.79001015729779
 21
36.4060557959408
 31
0.0
  0
LINE
  5
263
102
{ACAD_REACTORS
330
30A
330
30B
102
}
330
71
100
AcDbEntity
  8
0
  6
Continuous
 62
     2
100
AcDbLine
 10
-54.76872663682266
 20
39.0526907165582
 30
0.0
 11
-54.76872663682266
 21
39.99576895770201
 31
0.0
  0
LINE
  5
264
102
{ACAD_REACTORS
330
30A
330
30B
102
}
330
71
100
AcDbEntity
  8
0
  6
Continuous
 62
     2
100
AcDbLine
 10
-56.00923104707678
 20
39.0526907165582
 30
0.0
 11
-54.76872663682266
 21
39.0526907165582
 31
0.0
  0
LINE
  5
265
102
{ACAD_REACTORS
330
30A
330
30B
102
}
330
71
100
AcDbEntity
  8
0
  6
Continuous
 62
     2
100
AcDbLine
 10
-54.76872663682266
 20
40.73766674558709
 30
0.0
 11
-54.76872663682266
 21
41.4433943949293
 31
0.0
  0
LINE
  5
266
102
{ACAD_REACTORS
330
2FC
330
2FD
102
}
330
71
100
AcDbEntity
  8
0
  6
Continuous
 62
     2
100
AcDbLine
 10
-52.81254660526906
 20
42.1065002403694
 30
0.0
 11
-52.81254660526906
 21
39.0526907165582
 31
0.0
  0
LINE
  5
267
102
{ACAD_REACTORS
330
2FC
330
2FD
102
}
330
71
100
AcDbEntity
  8
0
  6
Continuous
 62
     2
100
AcDbLine
 10
-51.61975390310246
 20
40.18696282540202
 30
0.0
 11
-51.61975390310246
 21
39.0526907165582
 31
0.0
  0
LINE
  5
268
102
{ACAD_REACTORS
330
2FC
330
2FD
102
}
330
71
100
AcDbEntity
  8
0
  6
Continuous
 62
     2
100
AcDbLine
 10
-50.57009632519498
 20
40.18696282540202
 30
0.0
 11
-51.61975390310246
 21
40.18696282540202
 31
0.0
  0
LINE
  5
269
102
{ACAD_REACTORS
330
2FC
330
2FD
102
}
330
71
100
AcDbEntity
  8
0
  6
Continuous
 62
     2
100
AcDbLine
 10
-50.57009632519498
 20
42.1065002403694
 30
0.0
 11
-49.37730362302858
 21
42.1065002403694
 31
0.0
  0
LINE
  5
26A
102
{ACAD_REACTORS
330
2FC
330
2FD
102
}
330
71
100
AcDbEntity
  8
0
  6
Continuous
 62
     2
100
AcDbLine
 10
-50.57009632519498
 20
41.0376669070348
 30
0.0
 11
-50.57009632519498
 21
42.1065002403694
 31
0.0
  0
LINE
  5
26B
102
{ACAD_REACTORS
330
30E
330
30F
102
}
330
71
100
AcDbEntity
  8
0
  6
Continuous
 62
     2
100
AcDbLine
 10
-44.55842110627398
 20
41.40848663492642
 30
0.0
 11
-44.55842110627398
 21
42.1065002403694
 31
0.0
  0
LINE
  5
26C
102
{ACAD_REACTORS
330
30E
330
30F
102
}
330
71
100
AcDbEntity
  8
0
  6
Continuous
 62
     2
100
AcDbLine
 10
-47.70874083005498
 20
42.1065002403694
 30
0.0
 11
-44.55842110627398
 21
42.1065002403694
 31
0.0
  0
LINE
  5
26D
102
{ACAD_REACTORS
330
30E
330
30F
102
}
330
71
100
AcDbEntity
  8
0
  6
Continuous
 62
     2
100
AcDbLine
 10
-47.70874083005498
 20
39.0526907165582
 30
0.0
 11
-44.55842110627398
 21
39.0526907165582
 31
0.0
  0
LINE
  5
26E
102
{ACAD_REACTORS
330
30E
330
30F
102
}
330
71
100
AcDbEntity
  8
0
  6
Continuous
 62
     2
100
AcDbLine
 10
-44.55842110627398
 20
39.0526907165582
 30
0.0
 11
-44.55842110627398
 21
39.7507043220007
 31
0.0
  0
LINE
  5
26F
102
{ACAD_REACTORS
330
30E
330
30F
102
}
330
71
100
AcDbEntity
  8
0
  6
Continuous
 62
     2
100
AcDbLine
 10
-44.55842110627398
 20
39.7507043220007
 30
0.0
 11
-45.89434893270166
 21
39.7507043220007
 31
0.0
  0
LINE
  5
270
102
{ACAD_REACTORS
330
30E
330
30F
102
}
330
71
100
AcDbEntity
  8
0
  6
Continuous
 62
     2
100
AcDbLine
 10
-45.89434893270166
 20
39.7507043220007
 30
0.0
 11
-45.89434893270166
 21
40.23058867574241
 31
0.0
  0
LINE
  5
271
102
{ACAD_REACTORS
330
30E
330
30F
102
}
330
71
100
AcDbEntity
  8
0
  6
Continuous
 62
     2
100
AcDbLine
 10
-45.89434893270166
 20
41.40848663492642
 30
0.0
 11
-44.55842110627398
 21
41.40848663492642
 31
0.0
  0
LINE
  5
272
102
{ACAD_REACTORS
330
2FE
330
2FF
102
}
330
71
100
AcDbEntity
  8
0
  6
Continuous
 62
     2
100
AcDbLine
 10
-48.37550868409318
 20
35.69350024038391
 30
0.0
 11
-48.37550868409318
 21
37.0022757505885
 31
0.0
  0
LINE
  5
273
102
{ACAD_REACTORS
330
2FE
330
2FF
102
}
330
71
100
AcDbEntity
  8
0
  6
Continuous
 62
     2
100
AcDbLine
 10
-48.37550868409318
 20
37.0022757505885
 30
0.0
 11
-47.13500427384028
 21
35.69350024038391
 31
0.0
  0
LINE
  5
274
102
{ACAD_REACTORS
330
2FE
330
2FF
102
}
330
71
100
AcDbEntity
  8
0
  6
Continuous
 62
     2
100
AcDbLine
 10
-45.94221157167388
 20
35.69350024038391
 30
0.0
 11
-45.94221157167388
 21
38.747309764195
 31
0.0
  0
LINE
  5
275
102
{ACAD_REACTORS
330
2FE
330
2FF
102
}
330
71
100
AcDbEntity
  8
0
  6
Continuous
 62
     2
100
AcDbLine
 10
-45.94221157167388
 20
38.747309764195
 30
0.0
 11
-47.13500427384028
 21
38.747309764195
 31
0.0
  0
LINE
  5
276
102
{ACAD_REACTORS
330
2FE
330
2FF
102
}
330
71
100
AcDbEntity
  8
0
  6
Continuous
 62
     2
100
AcDbLine
 10
-47.13500427384028
 20
38.747309764195
 30
0.0
 11
-47.13500427384028
 21
37.4385342539899
 31
0.0
  0
LINE
  5
277
102
{ACAD_REACTORS
330
2FE
330
2FF
102
}
330
71
100
AcDbEntity
  8
0
  6
Continuous
 62
     2
100
AcDbLine
 10
-47.13500427384028
 20
37.4385342539899
 30
0.0
 11
-48.37550868409318
 21
38.747309764195
 31
0.0
  0
LINE
  5
278
102
{ACAD_REACTORS
330
300
330
301
102
}
330
71
100
AcDbEntity
  8
0
  6
Continuous
 62
     2
100
AcDbLine
 10
-43.12706986367456
 20
40.3614662267629
 30
0.0
 11
-41.88656545342056
 21
39.0526907165582
 31
0.0
  0
LINE
  5
279
102
{ACAD_REACTORS
330
300
330
301
102
}
330
71
100
AcDbEntity
  8
0
  6
Continuous
 62
     2
100
AcDbLine
 10
-41.88656545342056
 20
39.0526907165582
 30
0.0
 11
-40.69377275125396
 21
39.0526907165582
 31
0.0
  0
LINE
  5
27A
102
{ACAD_REACTORS
330
300
330
301
102
}
330
71
100
AcDbEntity
  8
0
  6
Continuous
 62
     2
100
AcDbLine
 10
-40.69377275125396
 20
39.0526907165582
 30
0.0
 11
-40.69377275125396
 21
42.1065002403694
 31
0.0
  0
LINE
  5
27B
102
{ACAD_REACTORS
330
300
330
301
102
}
330
71
100
AcDbEntity
  8
0
  6
Continuous
 62
     2
100
AcDbLine
 10
-40.69377275125396
 20
42.1065002403694
 30
0.0
 11
-41.88656545342056
 21
42.1065002403694
 31
0.0
  0
LINE
  5
27C
102
{ACAD_REACTORS
330
300
330
301
102
}
330
71
100
AcDbEntity
  8
0
  6
Continuous
 62
     2
100
AcDbLine
 10
-41.88656545342056
 20
40.79772473016422
 30
0.0
 11
-43.12706986367456
 21
42.1065002403694
 31
0.0
  0
LINE
  5
27D
102
{ACAD_REACTORS
330
300
330
301
102
}
330
71
100
AcDbEntity
  8
0
  6
Continuous
 62
     2
100
AcDbLine
 10
-44.31986256584108
 20
39.0526907165582
 30
0.0
 11
-43.12706986367456
 21
39.0526907165582
 31
0.0
  0
LINE
  5
27E
102
{ACAD_REACTORS
330
302
330
303
102
}
330
71
100
AcDbEntity
  8
0
  6
Continuous
 62
     2
100
AcDbLine
 10
-45.79907644741368
 20
38.747309764195
 30
0.0
 11
-45.79907644741368
 21
37.9620444580714
 31
0.0
  0
LINE
  5
27F
102
{ACAD_REACTORS
330
302
330
303
102
}
330
71
100
AcDbEntity
  8
0
  6
Continuous
 62
     2
100
AcDbLine
 10
-44.98797740993908
 20
37.9620444580714
 30
0.0
 11
-44.98797740993908
 21
35.69350024038391
 31
0.0
  0
LINE
  5
280
102
{ACAD_REACTORS
330
302
330
303
102
}
330
71
100
AcDbEntity
  8
0
  6
Continuous
 62
     2
100
AcDbLine
 10
-44.98797740993908
 20
35.69350024038391
 30
0.0
 11
-43.79518470777256
 21
35.69350024038391
 31
0.0
  0
LINE
  5
281
102
{ACAD_REACTORS
330
304
330
305
102
}
330
71
100
AcDbEntity
  8
0
  6
Continuous
 62
     2
100
AcDbLine
 10
-40.84565821435308
 20
35.69350024038391
 30
0.0
 11
-41.05713826782886
 21
36.23446078460179
 31
0.0
  0
LINE
  5
282
102
{ACAD_REACTORS
330
304
330
305
102
}
330
71
100
AcDbEntity
  8
0
  6
Continuous
 62
     2
100
AcDbLine
 10
-41.00310685103946
 20
38.747309764195
 30
0.0
 11
-39.60515380409916
 21
35.69350024038391
 31
0.0
  0
LINE
  5
283
102
{ACAD_REACTORS
330
304
330
305
102
}
330
71
100
AcDbEntity
  8
0
  6
Continuous
 62
     2
100
AcDbLine
 10
-42.24361126129216
 20
38.747309764195
 30
0.0
 11
-41.00310685103946
 21
38.747309764195
 31
0.0
  0
LINE
  5
284
102
{ACAD_REACTORS
330
304
330
305
102
}
330
71
100
AcDbEntity
  8
0
  6
Continuous
 62
     2
100
AcDbLine
 10
-43.64156430823147
 20
35.69350024038391
 30
0.0
 11
-42.40105989797849
 21
35.69350024038391
 31
0.0
  0
LINE
  5
285
102
{ACAD_REACTORS
330
304
330
305
102
}
330
71
100
AcDbEntity
  8
0
  6
Continuous
 62
     2
100
AcDbLine
 10
-41.92352429335767
 20
36.9150240499084
 30
0.0
 11
-41.32319381897517
 21
36.9150240499084
 31
0.0
  0
LINE
  5
286
102
{ACAD_REACTORS
330
304
330
305
102
}
330
71
100
AcDbEntity
  8
0
  6
Continuous
 62
     2
100
AcDbLine
 10
-41.32319381897517
 20
36.9150240499084
 30
0.0
 11
-41.62335905616527
 21
37.6828390158951
 31
0.0
  0
LINE
  5
287
102
{ACAD_REACTORS
330
306
330
307
102
}
330
71
100
AcDbEntity
  8
0
  6
Continuous
 62
     2
100
AcDbLine
 10
-39.21470980056716
 20
39.0526907165582
 30
0.0
 11
-40.45521421082006
 21
39.0526907165582
 31
0.0
  0
LINE
  5
288
102
{ACAD_REACTORS
330
308
330
309
102
}
330
71
100
AcDbEntity
  8
0
  6
Continuous
 62
     2
100
AcDbLine
 10
-37.69270631260207
 20
39.0526907165582
 30
0.0
 11
-39.09543053035029
 21
39.0526907165582
 31
0.0
  0
LINE
  5
289
102
{ACAD_REACTORS
330
308
330
309
102
}
330
71
100
AcDbEntity
  8
0
  6
Continuous
 62
     2
100
AcDbLine
 10
-37.69270631260207
 20
39.0526907165582
 30
0.0
 11
-36.99611537453637
 21
39.84042250185192
 31
0.0
  0
LINE
  5
28A
102
{ACAD_REACTORS
330
308
330
309
102
}
330
71
100
AcDbEntity
  8
0
  6
Continuous
 62
     2
100
AcDbLine
 10
-36.39494785264358
 20
42.1065002403694
 30
0.0
 11
-34.99222363489636
 21
42.1065002403694
 31
0.0
  0
LINE
  5
28B
102
{ACAD_REACTORS
330
308
330
309
102
}
330
71
100
AcDbEntity
  8
0
  6
Continuous
 62
     2
100
AcDbLine
 10
-39.00000711417746
 20
42.1065002403694
 30
0.0
 11
-37.69747748340998
 21
40.6335497103332
 31
0.0
  0
LINE
  5
28C
102
{ACAD_REACTORS
330
308
330
309
102
}
330
71
100
AcDbEntity
  8
0
  6
Continuous
 62
     2
100
AcDbLine
 10
-39.09543053035029
 20
39.0526907165582
 30
0.0
 11
-37.69747748340998
 21
40.6335497103332
 31
0.0
  0
LINE
  5
28D
102
{ACAD_REACTORS
330
312
330
313
102
}
330
71
100
AcDbEntity
  8
0
  6
Continuous
 62
     2
100
AcDbLine
 10
-37.23467391497036
 20
36.74052064854752
 30
0.0
 11
-37.23467391497036
 21
35.8680036417442
 31
0.0
  0
LINE
  5
28E
102
{ACAD_REACTORS
330
312
330
313
102
}
330
71
100
AcDbEntity
  8
0
  6
Continuous
 62
     2
100
AcDbLine
 10
-38.00433125793177
 20
37.9620444580714
 30
0.0
 11
-36.90069195836367
 21
37.9620444580714
 31
0.0
  0
LINE
  5
28F
102
{ACAD_REACTORS
330
314
330
315
102
}
330
71
100
AcDbEntity
  8
0
  6
Continuous
 62
     2
100
AcDbLine
 10
-53.33737539422228
 20
36.740520648548
 30
0.0
 11
-53.33737539422228
 21
35.86800364174479
 31
0.0
  0
LINE
  5
290
102
{ACAD_REACTORS
330
314
330
315
102
}
330
71
100
AcDbEntity
  8
0
  6
Continuous
 62
     2
100
AcDbLine
 10
-53.33737539422228
 20
37.70028935603091
 30
0.0
 11
-53.33737539422228
 21
38.5728063628342
 31
0.0
  0
LINE
  5
291
330
71
100
AcDbEntity
  8
1
  6
Continuous
 62
     7
100
AcDbLine
 10
62.50000019076163
 20
36.9000002403676
 30
0.0
 11
-30.64480433598976
 21
36.9000002403676
 31
0.0
  0
LINE
  5
292
330
71
100
AcDbEntity
  8
1
  6
Continuous
 62
     6
100
AcDbLine
 10
-136.0448043359897
 20
28.4000002403676
 30
0.0
 11
-180.9999998092397
 21
28.4000002403676
 31
0.0
  0
LINE
  5
293
330
71
100
AcDbEntity
  8
1
  6
Continuous
 62
     7
100
AcDbLine
 10
53.58159190908282
 20
53.9000002403676
 30
0.0
 11
53.58159190908282
 21
45.4000002403676
 31
0.0
  0
LINE
  5
294
330
71
100
AcDbEntity
  8
1
  6
Continuous
 62
     7
100
AcDbLine
 10
27.08159190908322
 20
53.9000002403676
 30
0.0
 11
27.08159190908322
 21
45.4000002403676
 31
0.0
  0
LINE
  5
295
330
71
100
AcDbEntity
  8
1
  6
Continuous
 62
     7
100
AcDbLine
 10
-30.64480433598976
 20
45.4000002403676
 30
0.0
 11
-30.64480433598976
 21
53.9000002403676
 31
0.0
  0
LINE
  5
296
330
71
100
AcDbEntity
  8
1
  6
Continuous
 62
     7
100
AcDbLine
 10
-67.04480433598968
 20
45.4000002403676
 30
0.0
 11
-67.04480433598968
 21
53.9000002403676
 31
0.0
  0
LINE
  5
297
330
71
100
AcDbEntity
  8
1
  6
Continuous
 62
     6
100
AcDbLine
 10
-30.64480433598976
 20
45.4000002403676
 30
0.0
 11
62.50000019076202
 21
45.4000002403676
 31
0.0
  0
LINE
  5
298
330
71
100
AcDbEntity
  8
1
  6
Continuous
 62
     7
100
AcDbLine
 10
-2.74480433598967
 20
36.90000024036752
 30
0.0
 11
-2.74480433598967
 21
45.4000002403676
 31
0.0
  0
LINE
  5
299
330
71
100
AcDbEntity
  8
1
  6
PHANTOM
 62
     2
100
AcDbLine
 10
-51.55814944942708
 20
49.52500024036752
 30
0.0
 11
-57.05814944942708
 21
49.52500024036752
 31
0.0
  0
LINE
  5
29A
330
71
100
AcDbEntity
  8
1
  6
PHANTOM
 62
     2
100
AcDbLine
 10
-54.30814944942708
 20
52.27500024036752
 30
0.0
 11
-54.30814944942708
 21
46.77500024036752
 31
0.0
  0
LINE
  5
29B
330
71
100
AcDbEntity
  8
1
  6
DOT_CENTER
 62
     2
100
AcDbLine
 10
-63.05814944942708
 20
49.52500024036752
 30
0.0
 11
-57.55814944942708
 21
49.52500024036752
 31
0.0
  0
ARC
  5
29C
102
{ACAD_REACTORS
330
314
330
315
102
}
330
71
100
AcDbEntity
  8
0
  6
Continuous
 62
     2
100
AcDbCircle
 10
-54.67330331134008
 20
33.90772405703331
 30
0.0
 40
4.852596863498062
100
AcDbArc
 50
74.02000874164736
 51
84.84185523037513
  0
ARC
  5
29D
102
{ACAD_REACTORS
330
314
330
315
102
}
330
71
100
AcDbEntity
  8
0
  6
Continuous
 62
     2
100
AcDbCircle
 10
-54.09726270258636
 20
37.0634844129176
 30
0.0
 40
0.9059297849853138
100
AcDbArc
 50
71.55192388185377
 51
113.3722778881288
  0
ARC
  5
29E
102
{ACAD_REACTORS
330
314
330
315
102
}
330
71
100
AcDbEntity
  8
0
  6
Continuous
 62
     2
100
AcDbCircle
 10
-54.25370273528839
 20
37.01533357295071
 30
0.0
 40
0.511580060194791
100
AcDbArc
 50
208.5214732576963
 51
246.6277221118285
  0
ARC
  5
29F
102
{ACAD_REACTORS
330
314
330
315
102
}
330
71
100
AcDbEntity
  8
0
  6
Continuous
 62
     2
100
AcDbCircle
 10
-54.09726270258636
 20
37.37732559166071
 30
0.0
 40
0.9059297849849257
100
AcDbArc
 50
246.6277221118712
 51
288.448076118158
  0
ARC
  5
2A0
102
{ACAD_REACTORS
330
314
330
315
102
}
330
71
100
AcDbEntity
  8
0
  6
Continuous
 62
     2
100
AcDbCircle
 10
-54.51543043624716
 20
38.63087136769789
 30
0.0
 40
2.227384008972734
100
AcDbArc
 50
288.4480761181326
 51
301.9309089499593
  0
ARC
  5
2A1
102
{ACAD_REACTORS
330
310
330
311
102
}
330
71
100
AcDbEntity
  8
0
  6
Continuous
 62
     2
100
AcDbCircle
 10
-59.74050416885396
 20
39.36337339661191
 30
0.0
 40
0.9118481501444717
100
AcDbArc
 50
295.374008678176
 51
64.62599132180728
  0
ARC
  5
2A2
102
{ACAD_REACTORS
330
310
330
311
102
}
330
71
100
AcDbEntity
  8
0
  6
Continuous
 62
     2
100
AcDbCircle
 10
-59.21446147076608
 20
41.07805028508651
 30
0.0
 40
0.315716923076064
100
AcDbArc
 50
90.18896704254594
 51
180.0
  0
ARC
  5
2A3
102
{ACAD_REACTORS
330
312
330
313
102
}
330
71
100
AcDbEntity
  8
0
  6
Continuous
 62
     2
100
AcDbCircle
 10
-38.00433125793177
 20
37.00752145124531
 30
0.0
 40
0.9545230068260864
100
AcDbArc
 50
90.0
 51
109.337143219432
  0
ARC
  5
2A4
102
{ACAD_REACTORS
330
312
330
313
102
}
330
71
100
AcDbEntity
  8
0
  6
Continuous
 62
     2
100
AcDbCircle
 10
-37.77364399795408
 20
37.2204050022892
 30
0.0
 40
0.9410597353348924
100
AcDbArc
 50
151.4785267423624
 51
208.5214732576695
  0
ARC
  5
2A5
102
{ACAD_REACTORS
330
312
330
313
102
}
330
71
100
AcDbEntity
  8
0
  6
Continuous
 62
     2
100
AcDbCircle
 10
-37.99456122333237
 20
37.37732559166071
 30
0.0
 40
0.9059297849852838
100
AcDbArc
 50
246.6277221118188
 51
288.4480761180819
  0
ARC
  5
2A6
102
{ACAD_REACTORS
330
312
330
313
102
}
330
71
100
AcDbEntity
  8
0
  6
Continuous
 62
     2
100
AcDbCircle
 10
-38.41272895699427
 20
38.6308713676973
 30
0.0
 40
2.227384008972746
100
AcDbArc
 50
288.4480761181335
 51
301.9309089499397
  0
ARC
  5
2A7
102
{ACAD_REACTORS
330
312
330
313
102
}
330
71
100
AcDbEntity
  8
0
  6
Continuous
 62
     2
100
AcDbCircle
 10
-38.57060183208708
 20
40.5330859475456
 30
0.0
 40
4.852596863498825
100
AcDbArc
 50
275.1581447696364
 51
285.9799912583387
  0
ARC
  5
2A8
102
{ACAD_REACTORS
330
312
330
313
102
}
330
71
100
AcDbEntity
  8
0
  6
Continuous
 62
     2
100
AcDbCircle
 10
-38.28174573735126
 20
37.33319536432401
 30
0.0
 40
1.63969512394045
100
AcDbArc
 50
195.0618917771014
 51
275.1581447696762
  0
ARC
  5
2A9
102
{ACAD_REACTORS
330
30A
330
30B
102
}
330
71
100
AcDbEntity
  8
0
  6
Continuous
 62
     2
100
AcDbCircle
 10
-54.00995904904238
 20
41.05113459903572
 30
0.0
 40
1.055365641333708
100
AcDbArc
 50
270.0
 51
90.0
  0
ARC
  5
2AA
102
{ACAD_REACTORS
330
310
330
311
102
}
330
71
100
AcDbEntity
  8
0
  6
Continuous
 62
     2
100
AcDbCircle
 10
-61.79001015729779
 20
36.72177271901751
 30
0.0
 40
0.3157169230756764
100
AcDbArc
 50
180.0
 51
270.0
  0
ARC
  5
2AB
102
{ACAD_REACTORS
330
310
330
311
102
}
330
71
100
AcDbEntity
  8
0
  6
Continuous
 62
     2
100
AcDbCircle
 10
-60.31417689628816
 20
41.07822776173461
 30
0.0
 40
0.315716923076593
100
AcDbArc
 50
0.0
 51
90.0
  0
ARC
  5
2AC
102
{ACAD_REACTORS
330
310
330
311
102
}
330
71
100
AcDbEntity
  8
0
  6
Continuous
 62
     2
100
AcDbCircle
 10
-60.31417689628816
 20
40.4742031426741
 30
0.0
 40
0.3157169230761203
100
AcDbArc
 50
295.1944106485397
 51
0.0
  0
ARC
  5
2AD
102
{ACAD_REACTORS
330
310
330
311
102
}
330
71
100
AcDbEntity
  8
0
  6
Continuous
 62
     2
100
AcDbCircle
 10
-60.31417689628816
 20
36.72177271901751
 30
0.0
 40
0.3157169230767067
100
AcDbArc
 50
270.0
 51
0.0
  0
ARC
  5
2AE
102
{ACAD_REACTORS
330
310
330
311
102
}
330
71
100
AcDbEntity
  8
0
  6
Continuous
 62
     2
100
AcDbCircle
 10
-62.38390483404427
 20
41.68225562496741
 30
0.0
 40
0.4242446153837989
100
AcDbArc
 50
90.0
 51
180.0
  0
ARC
  5
2AF
102
{ACAD_REACTORS
330
310
330
311
102
}
330
71
100
AcDbEntity
  8
0
  6
Continuous
 62
     2
100
AcDbCircle
 10
-56.91059274332747
 20
41.68225562496741
 30
0.0
 40
0.424244615383877
100
AcDbArc
 50
0.0
 51
90.0
  0
ARC
  5
2B0
102
{ACAD_REACTORS
330
310
330
311
102
}
330
71
100
AcDbEntity
  8
0
  6
Continuous
 62
     2
100
AcDbCircle
 10
-56.91059274332747
 20
36.1177448557672
 30
0.0
 40
0.4242446153832873
100
AcDbArc
 50
270.0
 51
0.0
  0
ARC
  5
2B1
102
{ACAD_REACTORS
330
30E
330
30F
102
}
330
71
100
AcDbEntity
  8
0
  6
Continuous
 62
     2
100
AcDbCircle
 10
-47.69220885623597
 20
40.57959547846352
 30
0.0
 40
0.7717997786796529
100
AcDbArc
 50
321.879580202844
 51
38.12041979715892
  0
ARC
  5
2B2
102
{ACAD_REACTORS
330
30E
330
30F
102
}
330
71
100
AcDbEntity
  8
0
  6
Continuous
 62
     2
100
AcDbCircle
 10
-47.49246881988978
 20
40.42286430034309
 30
0.0
 40
0.5179085730134415
100
AcDbArc
 50
218.1204197971517
 51
321.8795802028565
  0
ARC
  5
2B3
102
{ACAD_REACTORS
330
30C
330
30D
102
}
330
71
100
AcDbEntity
  8
0
  6
Continuous
 62
     2
100
AcDbCircle
 10
-51.17247640884997
 20
37.2204050022892
 30
0.0
 40
1.458034083651999
100
AcDbArc
 50
297.5481481757009
 51
62.4518518242992
  0
ARC
  5
2B4
102
{ACAD_REACTORS
330
30C
330
30D
102
}
330
71
100
AcDbEntity
  8
0
  6
Continuous
 62
     2
100
AcDbCircle
 10
-51.73435619251657
 20
37.2204050022892
 30
0.0
 40
1.45803408365149
100
AcDbArc
 50
117.5481481756624
 51
242.4518518243375
  0
ARC
  5
2B5
102
{ACAD_REACTORS
330
30C
330
30D
102
}
330
71
100
AcDbEntity
  8
0
  6
Continuous
 62
     2
100
AcDbCircle
 10
-51.45341630068327
 20
36.68182999198641
 30
0.0
 40
2.065479772208561
100
AcDbArc
 50
62.45185182430628
 51
117.5481481756665
  0
ARC
  5
2B6
102
{ACAD_REACTORS
330
30C
330
30D
102
}
330
71
100
AcDbEntity
  8
0
  6
Continuous
 62
     2
100
AcDbCircle
 10
-51.45341630068327
 20
37.7589800125925
 30
0.0
 40
2.065479772208509
100
AcDbArc
 50
242.4518518243402
 51
297.5481481756871
  0
ARC
  5
2B7
102
{ACAD_REACTORS
330
30E
330
30F
102
}
330
71
100
AcDbEntity
  8
0
  6
Continuous
 62
     2
100
AcDbCircle
 10
-47.29272878354348
 20
40.57959547846352
 30
0.0
 40
0.7717997786796724
100
AcDbArc
 50
141.8795802028404
 51
218.1204197971566
  0
ARC
  5
2B8
102
{ACAD_REACTORS
330
30E
330
30F
102
}
330
71
100
AcDbEntity
  8
0
  6
Continuous
 62
     2
100
AcDbCircle
 10
-47.49246881988978
 20
40.736326656584
 30
0.0
 40
0.5179085730135321
100
AcDbArc
 50
38.12041979714286
 51
141.8795802028489
  0
ARC
  5
2B9
102
{ACAD_REACTORS
330
310
330
311
102
}
330
71
100
AcDbEntity
  8
0
  6
Continuous
 62
     2
100
AcDbCircle
 10
-62.38390483404427
 20
36.1177448557672
 30
0.0
 40
0.4242446153828041
100
AcDbArc
 50
180.0
 51
270.0
  0
ARC
  5
2BA
102
{ACAD_REACTORS
330
310
330
311
102
}
330
71
100
AcDbEntity
  8
0
  6
Continuous
 62
     2
100
AcDbCircle
 10
-60.31417689628816
 20
38.25254365054911
 30
0.0
 40
0.315716923076593
100
AcDbArc
 50
0.0
 51
64.80558935146027
  0
ARC
  5
2BB
102
{ACAD_REACTORS
330
310
330
311
102
}
330
71
100
AcDbEntity
  8
0
  6
Continuous
 62
     2
100
AcDbCircle
 10
-59.79159244871318
 20
39.36337339661191
 30
0.0
 40
0.9118975235576051
100
AcDbArc
 50
115.194410648528
 51
244.8055893514885
  0
ARC
  5
2BC
102
{ACAD_REACTORS
330
310
330
311
102
}
330
71
100
AcDbEntity
  8
0
  6
Continuous
 62
     2
100
AcDbCircle
 10
-61.79001015729779
 20
41.07822776173461
 30
0.0
 40
0.3157169230762022
100
AcDbArc
 50
90.0
 51
180.0
  0
ARC
  5
2BD
102
{ACAD_REACTORS
330
30A
330
30B
102
}
330
71
100
AcDbEntity
  8
0
  6
Continuous
 62
     2
100
AcDbCircle
 10
-54.45143157528077
 20
41.09053057025821
 30
0.0
 40
0.3528638246711182
100
AcDbArc
 50
270.0
 51
90.0
  0
ARC
  5
2BE
102
{ACAD_REACTORS
330
30E
330
30F
102
}
330
71
100
AcDbEntity
  8
0
  6
Continuous
 62
     2
100
AcDbCircle
 10
-47.70874083005498
 20
40.57959547846352
 30
0.0
 40
1.526904761905882
100
AcDbArc
 50
90.0
 51
270.0
  0
ARC
  5
2BF
102
{ACAD_REACTORS
330
312
330
313
102
}
330
71
100
AcDbEntity
  8
0
  6
Continuous
 62
     2
100
AcDbCircle
 10
-38.28174573735126
 20
37.1076146402543
 30
0.0
 40
1.639695123940214
100
AcDbArc
 50
90.0
 51
164.938108222895
  0
ARC
  5
2C0
102
{ACAD_REACTORS
330
312
330
313
102
}
330
71
100
AcDbEntity
  8
0
  6
Continuous
 62
     2
100
AcDbCircle
 10
-38.70087358081287
 20
37.2204050022892
 30
0.0
 40
1.205656168393002
100
AcDbArc
 50
164.9381082229028
 51
195.0618917770962
  0
ARC
  5
2C1
102
{ACAD_REACTORS
330
312
330
313
102
}
330
71
100
AcDbEntity
  8
0
  6
Continuous
 62
     2
100
AcDbCircle
 10
-38.15100125603547
 20
37.01533357295071
 30
0.0
 40
0.5115800601960215
100
AcDbArc
 50
208.5214732576866
 51
246.627722111846
  0
ARC
  5
2C2
102
{ACAD_REACTORS
330
312
330
313
102
}
330
71
100
AcDbEntity
  8
0
  6
Continuous
 62
     2
100
AcDbCircle
 10
-38.15100125603547
 20
37.4254764316282
 30
0.0
 40
0.5115800601944143
100
AcDbArc
 50
109.3371432194853
 51
151.4785267424225
  0
ARC
  5
2C3
102
{ACAD_REACTORS
330
310
330
311
102
}
330
71
100
AcDbEntity
  8
0
  6
Continuous
 62
     2
100
AcDbCircle
 10
-59.21446147076608
 20
37.67238038994842
 30
0.0
 40
0.3157169230767849
100
AcDbArc
 50
180.0
 51
269.8110329574542
  0
ARC
  5
2C4
102
{ACAD_REACTORS
330
310
330
311
102
}
330
71
100
AcDbEntity
  8
0
  6
Continuous
 62
     2
100
AcDbCircle
 10
-59.20884533545606
 20
39.3752153375174
 30
0.0
 40
2.018561131933273
100
AcDbArc
 50
269.8110329575858
 51
90.18896704241416
  0
ARC
  5
2C5
102
{ACAD_REACTORS
330
310
330
311
102
}
330
71
100
AcDbEntity
  8
0
  6
Continuous
 62
     2
100
AcDbCircle
 10
-59.21446147076608
 20
40.47251499657972
 30
0.0
 40
0.3157169230767849
100
AcDbArc
 50
180.0
 51
244.6259913216482
  0
ARC
  5
2C6
102
{ACAD_REACTORS
330
310
330
311
102
}
330
71
100
AcDbEntity
  8
0
  6
Continuous
 62
     2
100
AcDbCircle
 10
-59.21446147076608
 20
38.2542317966435
 30
0.0
 40
0.31571692307652
100
AcDbArc
 50
115.3740086783529
 51
180.0
  0
ARC
  5
2C7
102
{ACAD_REACTORS
330
314
330
315
102
}
330
71
100
AcDbEntity
  8
0
  6
Continuous
 62
     2
100
AcDbCircle
 10
-54.38444721660417
 20
37.1076146402543
 30
0.0
 40
1.639695123940506
100
AcDbArc
 50
84.84185523036261
 51
164.9381082228864
  0
ARC
  5
2C8
102
{ACAD_REACTORS
330
314
330
315
102
}
330
71
100
AcDbEntity
  8
0
  6
Continuous
 62
     2
100
AcDbCircle
 10
-54.80357506006698
 20
37.2204050022892
 30
0.0
 40
1.205656168390937
100
AcDbArc
 50
164.9381082228764
 51
195.0618917770949
  0
ARC
  5
2C9
102
{ACAD_REACTORS
330
314
330
315
102
}
330
71
100
AcDbEntity
  8
0
  6
Continuous
 62
     2
100
AcDbCircle
 10
-54.38444721660417
 20
37.33319536432401
 30
0.0
 40
1.639695123939387
100
AcDbArc
 50
195.0618917770896
 51
275.1581447696393
  0
ARC
  5
2CA
102
{ACAD_REACTORS
330
314
330
315
102
}
330
71
100
AcDbEntity
  8
0
  6
Continuous
 62
     2
100
AcDbCircle
 10
-54.67330331134008
 20
40.5330859475456
 30
0.0
 40
4.852596863498138
100
AcDbArc
 50
275.1581447696248
 51
285.9799912583529
  0
ARC
  5
2CB
102
{ACAD_REACTORS
330
314
330
315
102
}
330
71
100
AcDbEntity
  8
0
  6
Continuous
 62
     2
100
AcDbCircle
 10
-53.87634547720808
 20
37.2204050022892
 30
0.0
 40
0.941059735333242
100
AcDbArc
 50
151.4785267422665
 51
208.5214732577062
  0
ARC
  5
2CC
102
{ACAD_REACTORS
330
314
330
315
102
}
330
71
100
AcDbEntity
  8
0
  6
Continuous
 62
     2
100
AcDbCircle
 10
-54.25370273528839
 20
37.4254764316282
 30
0.0
 40
0.5115800601948816
100
AcDbArc
 50
113.3722778881981
 51
151.4785267423037
  0
ARC
  5
2CD
102
{ACAD_REACTORS
330
314
330
315
102
}
330
71
100
AcDbEntity
  8
0
  6
Continuous
 62
     2
100
AcDbCircle
 10
-54.51543043624716
 20
35.80993863688101
 30
0.0
 40
2.227384008973484
100
AcDbArc
 50
58.06909105004083
 51
71.5519238818674
  0
ARC
  5
2CE
102
{ACAD_REACTORS
330
30C
330
30D
102
}
330
71
100
AcDbEntity
  8
0
  6
Continuous
 62
     2
100
AcDbCircle
 10
-51.45341630068327
 20
37.37713618040971
 30
0.0
 40
0.5179085730132943
100
AcDbArc
 50
38.12041979714752
 51
141.8795802028593
  0
ARC
  5
2CF
102
{ACAD_REACTORS
330
30C
330
30D
102
}
330
71
100
AcDbEntity
  8
0
  6
Continuous
 62
     2
100
AcDbCircle
 10
-51.25367626433717
 20
37.2204050022892
 30
0.0
 40
0.7717997786794689
100
AcDbArc
 50
141.8795802028366
 51
218.1204197971684
  0
ARC
  5
2D0
102
{ACAD_REACTORS
330
30C
330
30D
102
}
330
71
100
AcDbEntity
  8
0
  6
Continuous
 62
     2
100
AcDbCircle
 10
-51.45341630068327
 20
37.0636738241692
 30
0.0
 40
0.5179085730137409
100
AcDbArc
 50
218.1204197971927
 51
321.8795802028005
  0
ARC
  5
2D1
102
{ACAD_REACTORS
330
30C
330
30D
102
}
330
71
100
AcDbEntity
  8
0
  6
Continuous
 62
     2
100
AcDbCircle
 10
-51.65315633702969
 20
37.2204050022892
 30
0.0
 40
0.7717997786796947
100
AcDbArc
 50
321.8795802028417
 51
38.12041979715329
  0
CIRCLE
  5
2D2
330
71
100
AcDbEntity
  8
1
  6
Continuous
 62
     2
100
AcDbCircle
 10
-54.30814944942708
 20
49.52500024036752
 30
0.0
 40
2.5
  0
CIRCLE
  5
2D3
330
71
100
AcDbEntity
  8
1
  6
Continuous
 62
     2
100
AcDbCircle
 10
-54.30814944942708
 20
49.52500024036752
 30
0.0
 40
1.249999999999915
  0
CIRCLE
  5
2D4
102
{ACAD_REACTORS
330
310
330
311
102
}
330
71
100
AcDbEntity
  8
0
  6
Continuous
 62
     2
100
AcDbCircle
 10
-59.76431918352677
 20
39.36337339661191
 30
0.0
 40
0.4709789327785145
  0
MTEXT
  5
2D5
330
71
100
AcDbEntity
  8
1
 62
     3
100
AcDbMText
 10
-224.4949320231679
 20
215.1913083956664
 30
0.0
 40
1.8
 41
0.0
 71
     7
 72
     1
  3
Weitergabe sowie Vervielf\U+00e4ltigung dieses Dokuments, Verwertung und \PMitteilung seines Inhalts sind verboten, soweit nicht ausdr\U+00fccklich gestattet. \PZuwiderhandlungen verpflichten zu Schadenersatz. Alle Rechte f\U+00fcr den Fall\Pder Pat
  1
ent-, Gebrauchsmuster- oder Designeintragung vorbehalten.
  7
CONVERTER_11
 73
     1
 44
0.99639855942377
  0
MTEXT
  5
2D6
330
71
100
AcDbEntity
  8
1
 62
     3
100
AcDbMText
 10
-41.64182218437978
 20
215.1913083956664
 30
0.0
 40
1.8
 41
0.0
 71
     7
 72
     1
  3
Transfer or duplication of this document as well as the utilisation or\Pcommunication of its content are not permitted unless express consent\Pis granted. Violations give rise to claims for damages. All rights reserved\Pin case of patent, utility mo
  1
del or design patent registrations.
  7
CONVERTER_11
 73
     1
 44
0.99639855942377
  0
TEXT
  5
2D7
330
71
100
AcDbEntity
  8
1
 62
     2
100
AcDbText
 10
-47.84480433598986
 20
29.64098302537599
 30
0.0
 40
1.8
  1
of
 41
0.9
  7
CONVERTER_11
100
AcDbText
  0
TEXT
  5
2D8
330
71
100
AcDbEntity
  8
1
 62
     2
100
AcDbText
 10
-66.04480433598968
 20
29.64098302537593
 30
0.0
 40
1.8
  1
page
 41
0.9
  7
CONVERTER_11
100
AcDbText
  0
TEXT
  5
2D9
330
71
100
AcDbEntity
  8
1
 62
     2
100
AcDbText
 10
-57.39853936564768
 20
29.60075158656559
 30
0.0
 40
1.8
  1
1
 41
0.9
  7
CONVERTER_11
100
AcDbText
  0
TEXT
  5
2DA
330
71
100
AcDbEntity
  8
1
 62
     2
100
AcDbText
 10
-42.60949552617618
 20
29.65000024036749
 30
0.0
 40
1.8
  1
1
 41
0.9
  7
CONVERTER_11
100
AcDbText
  0
MTEXT
  5
2DC
330
71
100
AcDbEntity
  8
1
 62
     7
100
AcDbMText
 10
15.92759792738582
 20
31.65000024036783
 30
0.0
 40
3.0
 41
0.0
 71
     5
 72
     1
  1
CB PT BRIDGE
  7
CONVERTER_12
 73
     1
 44
1.20048019207683
  0
MTEXT
  5
2DD
330
71
100
AcDbEntity
  8
1
 62
     2
100
AcDbMText
 10
-29.64480433598976
 20
35.9000002403676
 30
0.0
 40
1.8
 41
0.0
 71
     1
 72
     1
  1
description
  7
CONVERTER_11
 73
     1
 44
1.20048019207683
  0
MTEXT
  5
2DE
330
71
100
AcDbEntity
  8
1
 62
     3
100
AcDbMText
 10
-40.84480433598978
 20
49.5250002403676
 30
0.0
 40
2.5
 41
0.0
 71
     5
 72
     1
  1
DIN A4
  7
CONVERTER_11
 73
     1
 44
1.20048019207683
  0
MTEXT
  5
2DF
330
71
100
AcDbEntity
  8
1
 62
     7
100
AcDbMText
 10
-226.9999998092387
 20
50.9000002403676
 30
0.0
 40
3.5
 41
0.0
 71
     5
 72
     1
  1
D
  7
CONVERTER_11
 73
     1
 44
1.20048019207683
  0
MTEXT
  5
2E0
330
71
100
AcDbEntity
  8
1
 62
     7
100
AcDbMText
 10
-226.9999998092387
 20
103.4000002403676
 30
0.0
 40
3.5
 41
0.0
 71
     5
 72
     1
  1
C
  7
CONVERTER_11
 73
     1
 44
1.20048019207683
  0
MTEXT
  5
2E1
330
71
100
AcDbEntity
  8
1
 62
     7
100
AcDbMText
 10
-226.9999998092387
 20
153.4000002403676
 30
0.0
 40
3.5
 41
0.0
 71
     5
 72
     1
  1
B
  7
CONVERTER_11
 73
     1
 44
1.20048019207683
  0
MTEXT
  5
2E2
330
71
100
AcDbEntity
  8
1
 62
     7
100
AcDbMText
 10
-226.9999998092387
 20
205.9000002403676
 30
0.0
 40
3.5
 41
0.0
 71
     5
 72
     1
  1
A
  7
CONVERTER_11
 73
     1
 44
1.20048019207683
  0
MTEXT
  5
2E3
330
71
100
AcDbEntity
  8
1
 62
     7
100
AcDbMText
 10
43.25000019075952
 20
25.90000024036749
 30
0.0
 40
3.5
 41
0.0
 71
     5
 72
     1
  1
6
  7
CONVERTER_11
 73
     1
 44
1.20048019207683
  0
MTEXT
  5
2E4
330
71
100
AcDbEntity
  8
1
 62
     7
100
AcDbMText
 10
-5.99999980923968
 20
25.90000024036749
 30
0.0
 40
3.5
 41
0.0
 71
     5
 72
     1
  1
5
  7
CONVERTER_11
 73
     1
 44
1.20048019207683
  0
MTEXT
  5
2E5
330
71
100
AcDbEntity
  8
1
 62
     7
100
AcDbMText
 10
-55.99999980923977
 20
25.90000024036749
 30
0.0
 40
3.5
 41
0.0
 71
     5
 72
     1
  1
4
  7
CONVERTER_11
 73
     1
 44
1.20048019207683
  0
MTEXT
  5
2E6
330
71
100
AcDbEntity
  8
1
 62
     7
100
AcDbMText
 10
-105.9999998092397
 20
25.90000024036749
 30
0.0
 40
3.5
 41
0.0
 71
     5
 72
     1
  1
3
  7
CONVERTER_11
 73
     1
 44
1.20048019207683
  0
MTEXT
  5
2E7
330
71
100
AcDbEntity
  8
1
 62
     7
100
AcDbMText
 10
-155.9999998092397
 20
25.90000024036749
 30
0.0
 40
3.5
 41
0.0
 71
     5
 72
     1
  1
2
  7
CONVERTER_11
 73
     1
 44
1.20048019207683
  0
MTEXT
  5
2E8
330
71
100
AcDbEntity
  8
1
 62
     7
100
AcDbMText
 10
-205.2499998092393
 20
25.90000024036749
 30
0.0
 40
3.5
 41
0.0
 71
     5
 72
     1
  1
1
  7
CONVERTER_11
 73
     1
 44
1.20048019207683
  0
MTEXT
  5
2E9
330
71
100
AcDbEntity
  8
1
 62
     7
100
AcDbMText
 10
65.00000019075932
 20
50.9000002403676
 30
0.0
 40
3.5
 41
0.0
 71
     5
 72
     1
  1
D
  7
CONVERTER_11
 73
     1
 44
1.20048019207683
  0
MTEXT
  5
2EA
330
71
100
AcDbEntity
  8
1
 62
     7
100
AcDbMText
 10
65.00000019075932
 20
153.4000002403695
 30
0.0
 40
3.5
 41
0.0
 71
     5
 72
     1
  1
B
  7
CONVERTER_11
 73
     1
 44
1.20048019207683
  0
MTEXT
  5
2EB
330
71
100
AcDbEntity
  8
1
 62
     7
100
AcDbMText
 10
65.00000019075932
 20
205.9000002403676
 30
0.0
 40
3.5
 41
0.0
 71
     5
 72
     1
  1
A
  7
CONVERTER_11
 73
     1
 44
1.20048019207683
  0
MTEXT
  5
2EC
330
71
100
AcDbEntity
  8
1
 62
     7
100
AcDbMText
 10
65.00000019075932
 20
103.4000002403695
 30
0.0
 40
3.5
 41
0.0
 71
     5
 72
     1
  1
C
  7
CONVERTER_11
 73
     1
 44
1.20048019207683
  0
MTEXT
  5
2ED
330
71
100
AcDbEntity
  8
1
 62
     2
100
AcDbMText
 10
-101.4828190610372
 20
41.15000024036752
 30
0.0
 40
2.0
 41
0.0
 71
     5
 72
     1
  1
General Information\P- Simplified representation\P- Document excluded from change process\P- Linear dimensions [mm]
  7
CONVERTER_11
 73
     1
 44
1.20048019207683
  0
TEXT
  5
2EE
330
71
100
AcDbEntity
  8
1
 62
     7
100
AcDbText
 10
-29.14480433598996
 20
38.2000002403675
 30
0.0
 40
2.5
  1
2801014
 41
0.81
  7
CONVERTER_12
100
AcDbText
  0
MTEXT
  5
2EF
330
71
100
AcDbEntity
  8
1
 62
     2
100
AcDbMText
 10
-29.54480433598968
 20
44.4000002403676
 30
0.0
 40
1.8
 41
0.0
 71
     1
 72
     1
  1
ident.-No.
  7
CONVERTER_11
 73
     1
 44
1.20048019207683
  0
MTEXT
  5
2F0
330
71
100
AcDbEntity
  8
1
 62
     2
100
AcDbMText
 10
54.68159190908304
 20
52.9000002403676
 30
0.0
 40
1.8
 41
0.0
 71
     1
 72
     1
  1
scale
  7
CONVERTER_11
 73
     1
 44
1.20048019207683
  0
MTEXT
  5
2F2
330
71
100
AcDbEntity
  8
1
 62
     3
100
AcDbMText
 10
58.04079604992263
 20
46.7000002403677
 30
0.0
 40
2.5
 41
0.0
 71
     8
 72
     1
  1
1:1
  7
CONVERTER_13
 73
     1
 44
1.32052821128451
  0
TEXT
  5
2F3
330
71
100
AcDbEntity
  8
1
 62
     7
100
AcDbText
 10
-29.54480433598968
 20
46.7000002403675
 30
0.0
 40
2.5
  1
83139843
 41
0.81
  7
CONVERTER_12
100
AcDbText
  0
MTEXT
  5
2F5
330
71
100
AcDbEntity
  8
1
 62
     2
100
AcDbMText
 10
-29.54480433598968
 20
52.9000002403676
 30
0.0
 40
1.8
 41
0.0
 71
     1
 72
     1
  1
document-No. / RI
  7
CONVERTER_14
 73
     1
 44
1.32052821128451
  0
TEXT
  5
2F6
330
71
100
AcDbEntity
  8
1
 62
     3
100
AcDbText
 10
-1.74480433598967
 20
38.2000002403675
 30
0.0
 40
2.5
  1
TECDOC 2D_Productdrawing
 41
0.81
  7
CONVERTER_12
100
AcDbText
  0
MTEXT
  5
2F7
330
71
100
AcDbEntity
  8
1
 62
     2
100
AcDbMText
 10
-1.74480433598967
 20
44.40000024036752
 30
0.0
 40
1.8
 41
0.0
 71
     1
 72
     1
  1
document-type
  7
CONVERTER_11
 73
     1
 44
1.20048019207683
  0
MTEXT
  5
2F8
330
71
100
AcDbEntity
  8
1
 62
     2
100
AcDbMText
 10
28.08159190908322
 20
52.90000024036752
 30
0.0
 40
1.8
 41
0.0
 71
     1
 72
     1
  1
date
  7
CONVERTER_11
 73
     1
 44
1.32052821128451
  0
TEXT
  5
2F9
330
71
100
AcDbEntity
  8
1
 62
     3
100
AcDbText
 10
28.08159190908322
 20
46.7000002403675
 30
0.0
 40
2.5
  1
26.01.2018
 41
0.81
  7
CONVERTER_12
100
AcDbText
  0
TEXT
  5
2FA
330
71
100
AcDbEntity
  8
1
 62
     7
100
AcDbText
 10
-9.51489211693388
 20
46.7000002403675
 30
0.0
 40
2.5
  1
00
 41
0.81
  7
CONVERTER_12
100
AcDbText
  0
TEXT
  5
2FB
330
71
100
AcDbEntity
  8
1
 62
     7
100
AcDbText
 10
-11.67125661397589
 20
46.7000002403675
 30
0.0
 40
2.5
  1
/
 41
0.9
  7
CONVERTER_11
100
AcDbText
  0
HATCH
  5
2FC
330
71
100
AcDbEntity
  8
1
  6
Continuous
 62
     2
100
AcDbHatch
 10
0.0
 20
0.0
 30
0.0
210
0.0
220
0.0
230
1.0
  2
_USER
 70
     0
 71
     1
 91
        1
 92
        1
 93
       12
 72
     1
 10
-49.37730362302858
 20
39.0526907165582
 11
-50.57009632519498
 21
39.0526907165582
 72
     1
 10
-50.57009632519498
 20
39.0526907165582
 11
-50.57009632519498
 21
40.18696282540202
 72
     1
 10
-50.57009632519498
 20
40.18696282540202
 11
-51.61975390310246
 21
40.18696282540202
 72
     1
 10
-51.61975390310246
 20
40.18696282540202
 11
-51.61975390310246
 21
39.0526907165582
 72
     1
 10
-51.61975390310246
 20
39.0526907165582
 11
-52.81254660526906
 21
39.0526907165582
 72
     1
 10
-52.81254660526906
 20
39.0526907165582
 11
-52.81254660526906
 21
42.1065002403694
 72
     1
 10
-52.81254660526906
 20
42.1065002403694
 11
-51.61975390310246
 21
42.1065002403694
 72
     1
 10
-51.61975390310246
 20
42.1065002403694
 11
-51.61975390310246
 21
41.0376669070348
 72
     1
 10
-51.61975390310246
 20
41.0376669070348
 11
-50.57009632519498
 21
41.0376669070348
 72
     1
 10
-50.57009632519498
 20
41.0376669070348
 11
-50.57009632519498
 21
42.1065002403694
 72
     1
 10
-50.57009632519498
 20
42.1065002403694
 11
-49.37730362302858
 21
42.1065002403694
 72
     1
 10
-49.37730362302858
 20
42.1065002403694
 11
-49.37730362302858
 21
39.0526907165582
 97
       12
330
269
330
26A
330
254
330
253
330
252
330
266
330
251
330
267
330
268
330
250
330
24F
330
24E
 75
     1
 76
     0
 52
45.0
 41
0.1
 77
     0
 78
     1
 53
45.0
 43
0.0
 44
0.0
 45
-0.0707106781186548
 46
0.0707106781186548
 79
     0
 98
        1
 10
0.0
 20
0.0
  0
HATCH
  5
2FD
330
71
100
AcDbEntity
  8
1
  6
Continuous
 62
     2
100
AcDbHatch
 10
0.0
 20
0.0
 30
0.0
210
0.0
220
0.0
230
1.0
  2
_USER
 70
     0
 71
     1
 91
        1
 92
        1
 93
       12
 72
     1
 10
-49.37730362302858
 20
39.0526907165582
 11
-50.57009632519498
 21
39.0526907165582
 72
     1
 10
-50.57009632519498
 20
39.0526907165582
 11
-50.57009632519498
 21
40.18696282540202
 72
     1
 10
-50.57009632519498
 20
40.18696282540202
 11
-51.61975390310246
 21
40.18696282540202
 72
     1
 10
-51.61975390310246
 20
40.18696282540202
 11
-51.61975390310246
 21
39.0526907165582
 72
     1
 10
-51.61975390310246
 20
39.0526907165582
 11
-52.81254660526906
 21
39.0526907165582
 72
     1
 10
-52.81254660526906
 20
39.0526907165582
 11
-52.81254660526906
 21
42.1065002403694
 72
     1
 10
-52.81254660526906
 20
42.1065002403694
 11
-51.61975390310246
 21
42.1065002403694
 72
     1
 10
-51.61975390310246
 20
42.1065002403694
 11
-51.61975390310246
 21
41.0376669070348
 72
     1
 10
-51.61975390310246
 20
41.0376669070348
 11
-50.57009632519498
 21
41.0376669070348
 72
     1
 10
-50.57009632519498
 20
41.0376669070348
 11
-50.57009632519498
 21
42.1065002403694
 72
     1
 10
-50.57009632519498
 20
42.1065002403694
 11
-49.37730362302858
 21
42.1065002403694
 72
     1
 10
-49.37730362302858
 20
42.1065002403694
 11
-49.37730362302858
 21
39.0526907165582
 97
       12
330
269
330
26A
330
254
330
253
330
252
330
266
330
251
330
267
330
268
330
250
330
24F
330
24E
 75
     1
 76
     0
 52
45.0
 41
0.1
 77
     0
 78
     1
 53
45.0
 43
0.0
 44
0.0
 45
-0.0707106781186548
 46
0.0707106781186548
 79
     0
 98
        1
 10
0.0
 20
0.0
  0
HATCH
  5
2FE
330
71
100
AcDbEntity
  8
1
  6
Continuous
 62
     2
100
AcDbHatch
 10
0.0
 20
0.0
 30
0.0
210
0.0
220
0.0
230
1.0
  2
_USER
 70
     0
 71
     1
 91
        1
 92
        1
 93
       10
 72
     1
 10
-47.13500427384028
 20
37.4385342539899
 11
-48.37550868409318
 21
38.747309764195
 72
     1
 10
-48.37550868409318
 20
38.747309764195
 11
-49.56830138626077
 21
38.747309764195
 72
     1
 10
-49.56830138626077
 20
38.747309764195
 11
-49.56830138626077
 21
35.69350024038391
 72
     1
 10
-49.56830138626077
 20
35.69350024038391
 11
-48.37550868409318
 21
35.69350024038391
 72
     1
 10
-48.37550868409318
 20
35.69350024038391
 11
-48.37550868409318
 21
37.0022757505885
 72
     1
 10
-48.37550868409318
 20
37.0022757505885
 11
-47.13500427384028
 21
35.69350024038391
 72
     1
 10
-47.13500427384028
 20
35.69350024038391
 11
-45.94221157167388
 21
35.69350024038391
 72
     1
 10
-45.94221157167388
 20
35.69350024038391
 11
-45.94221157167388
 21
38.747309764195
 72
     1
 10
-45.94221157167388
 20
38.747309764195
 11
-47.13500427384028
 21
38.747309764195
 72
     1
 10
-47.13500427384028
 20
38.747309764195
 11
-47.13500427384028
 21
37.4385342539899
 97
       10
330
277
330
247
330
246
330
249
330
272
330
273
330
248
330
274
330
275
330
276
 75
     1
 76
     0
 52
45.0
 41
0.1
 77
     0
 78
     1
 53
45.0
 43
0.0
 44
0.0
 45
-0.0707106781186548
 46
0.0707106781186548
 79
     0
 98
        1
 10
0.0
 20
0.0
  0
HATCH
  5
2FF
330
71
100
AcDbEntity
  8
1
  6
Continuous
 62
     2
100
AcDbHatch
 10
0.0
 20
0.0
 30
0.0
210
0.0
220
0.0
230
1.0
  2
_USER
 70
     0
 71
     1
 91
        1
 92
        1
 93
       10
 72
     1
 10
-47.13500427384028
 20
37.4385342539899
 11
-48.37550868409318
 21
38.747309764195
 72
     1
 10
-48.37550868409318
 20
38.747309764195
 11
-49.56830138626077
 21
38.747309764195
 72
     1
 10
-49.56830138626077
 20
38.747309764195
 11
-49.56830138626077
 21
35.69350024038391
 72
     1
 10
-49.56830138626077
 20
35.69350024038391
 11
-48.37550868409318
 21
35.69350024038391
 72
     1
 10
-48.37550868409318
 20
35.69350024038391
 11
-48.37550868409318
 21
37.0022757505885
 72
     1
 10
-48.37550868409318
 20
37.0022757505885
 11
-47.13500427384028
 21
35.69350024038391
 72
     1
 10
-47.13500427384028
 20
35.69350024038391
 11
-45.94221157167388
 21
35.69350024038391
 72
     1
 10
-45.94221157167388
 20
35.69350024038391
 11
-45.94221157167388
 21
38.747309764195
 72
     1
 10
-45.94221157167388
 20
38.747309764195
 11
-47.13500427384028
 21
38.747309764195
 72
     1
 10
-47.13500427384028
 20
38.747309764195
 11
-47.13500427384028
 21
37.4385342539899
 97
       10
330
277
330
247
330
246
330
249
330
272
330
273
330
248
330
274
330
275
330
276
 75
     1
 76
     0
 52
45.0
 41
0.1
 77
     0
 78
     1
 53
45.0
 43
0.0
 44
0.0
 45
-0.0707106781186548
 46
0.0707106781186548
 79
     0
 98
        1
 10
0.0
 20
0.0
  0
HATCH
  5
300
330
71
100
AcDbEntity
  8
1
  6
Continuous
 62
     2
100
AcDbHatch
 10
0.0
 20
0.0
 30
0.0
210
0.0
220
0.0
230
1.0
  2
_USER
 70
     0
 71
     1
 91
        1
 92
        1
 93
       10
 72
     1
 10
-41.88656545342056
 20
40.79772473016422
 11
-43.12706986367456
 21
42.1065002403694
 72
     1
 10
-43.12706986367456
 20
42.1065002403694
 11
-44.31986256584108
 21
42.1065002403694
 72
     1
 10
-44.31986256584108
 20
42.1065002403694
 11
-44.31986256584108
 21
39.0526907165582
 72
     1
 10
-44.31986256584108
 20
39.0526907165582
 11
-43.12706986367456
 21
39.0526907165582
 72
     1
 10
-43.12706986367456
 20
39.0526907165582
 11
-43.12706986367456
 21
40.3614662267629
 72
     1
 10
-43.12706986367456
 20
40.3614662267629
 11
-41.88656545342056
 21
39.0526907165582
 72
     1
 10
-41.88656545342056
 20
39.0526907165582
 11
-40.69377275125396
 21
39.0526907165582
 72
     1
 10
-40.69377275125396
 20
39.0526907165582
 11
-40.69377275125396
 21
42.1065002403694
 72
     1
 10
-40.69377275125396
 20
42.1065002403694
 11
-41.88656545342056
 21
42.1065002403694
 72
     1
 10
-41.88656545342056
 20
42.1065002403694
 11
-41.88656545342056
 21
40.79772473016422
 97
       10
330
27C
330
244
330
243
330
27D
330
242
330
278
330
279
330
27A
330
27B
330
245
 75
     1
 76
     0
 52
45.0
 41
0.1
 77
     0
 78
     1
 53
45.0
 43
0.0
 44
0.0
 45
-0.0707106781186548
 46
0.0707106781186548
 79
     0
 98
        1
 10
0.0
 20
0.0
  0
HATCH
  5
301
330
71
100
AcDbEntity
  8
1
  6
Continuous
 62
     2
100
AcDbHatch
 10
0.0
 20
0.0
 30
0.0
210
0.0
220
0.0
230
1.0
  2
_USER
 70
     0
 71
     1
 91
        1
 92
        1
 93
       10
 72
     1
 10
-41.88656545342056
 20
40.79772473016422
 11
-43.12706986367456
 21
42.1065002403694
 72
     1
 10
-43.12706986367456
 20
42.1065002403694
 11
-44.31986256584108
 21
42.1065002403694
 72
     1
 10
-44.31986256584108
 20
42.1065002403694
 11
-44.31986256584108
 21
39.0526907165582
 72
     1
 10
-44.31986256584108
 20
39.0526907165582
 11
-43.12706986367456
 21
39.0526907165582
 72
     1
 10
-43.12706986367456
 20
39.0526907165582
 11
-43.12706986367456
 21
40.3614662267629
 72
     1
 10
-43.12706986367456
 20
40.3614662267629
 11
-41.88656545342056
 21
39.0526907165582
 72
     1
 10
-41.88656545342056
 20
39.0526907165582
 11
-40.69377275125396
 21
39.0526907165582
 72
     1
 10
-40.69377275125396
 20
39.0526907165582
 11
-40.69377275125396
 21
42.1065002403694
 72
     1
 10
-40.69377275125396
 20
42.1065002403694
 11
-41.88656545342056
 21
42.1065002403694
 72
     1
 10
-41.88656545342056
 20
42.1065002403694
 11
-41.88656545342056
 21
40.79772473016422
 97
       10
330
27C
330
244
330
243
330
27D
330
242
330
278
330
279
330
27A
330
27B
330
245
 75
     1
 76
     0
 52
45.0
 41
0.1
 77
     0
 78
     1
 53
45.0
 43
0.0
 44
0.0
 45
-0.0707106781186548
 46
0.0707106781186548
 79
     0
 98
        1
 10
0.0
 20
0.0
  0
HATCH
  5
302
330
71
100
AcDbEntity
  8
1
  6
Continuous
 62
     2
100
AcDbHatch
 10
0.0
 20
0.0
 30
0.0
210
0.0
220
0.0
230
1.0
  2
_USER
 70
     0
 71
     1
 91
        1
 92
        1
 93
        8
 72
     1
 10
-42.98408567030006
 20
38.747309764195
 11
-45.79907644741368
 21
38.747309764195
 72
     1
 10
-45.79907644741368
 20
38.747309764195
 11
-45.79907644741368
 21
37.9620444580714
 72
     1
 10
-45.79907644741368
 20
37.9620444580714
 11
-44.98797740993908
 21
37.9620444580714
 72
     1
 10
-44.98797740993908
 20
37.9620444580714
 11
-44.98797740993908
 21
35.69350024038391
 72
     1
 10
-44.98797740993908
 20
35.69350024038391
 11
-43.79518470777256
 21
35.69350024038391
 72
     1
 10
-43.79518470777256
 20
35.69350024038391
 11
-43.79518470777256
 21
37.9620444580714
 72
     1
 10
-43.79518470777256
 20
37.9620444580714
 11
-42.98408567030006
 21
37.9620444580714
 72
     1
 10
-42.98408567030006
 20
37.9620444580714
 11
-42.98408567030006
 21
38.747309764195
 97
        8
330
23E
330
27E
330
23D
330
27F
330
280
330
241
330
240
330
23F
 75
     1
 76
     0
 52
45.0
 41
0.1
 77
     0
 78
     1
 53
45.0
 43
0.0
 44
0.0
 45
-0.0707106781186548
 46
0.0707106781186548
 79
     0
 98
        1
 10
0.0
 20
0.0
  0
HATCH
  5
303
330
71
100
AcDbEntity
  8
1
  6
Continuous
 62
     2
100
AcDbHatch
 10
0.0
 20
0.0
 30
0.0
210
0.0
220
0.0
230
1.0
  2
_USER
 70
     0
 71
     1
 91
        1
 92
        1
 93
        8
 72
     1
 10
-42.98408567030006
 20
38.747309764195
 11
-45.79907644741368
 21
38.747309764195
 72
     1
 10
-45.79907644741368
 20
38.747309764195
 11
-45.79907644741368
 21
37.9620444580714
 72
     1
 10
-45.79907644741368
 20
37.9620444580714
 11
-44.98797740993908
 21
37.9620444580714
 72
     1
 10
-44.98797740993908
 20
37.9620444580714
 11
-44.98797740993908
 21
35.69350024038391
 72
     1
 10
-44.98797740993908
 20
35.69350024038391
 11
-43.79518470777256
 21
35.69350024038391
 72
     1
 10
-43.79518470777256
 20
35.69350024038391
 11
-43.79518470777256
 21
37.9620444580714
 72
     1
 10
-43.79518470777256
 20
37.9620444580714
 11
-42.98408567030006
 21
37.9620444580714
 72
     1
 10
-42.98408567030006
 20
37.9620444580714
 11
-42.98408567030006
 21
38.747309764195
 97
        8
330
23E
330
27E
330
23D
330
27F
330
280
330
241
330
240
330
23F
 75
     1
 76
     0
 52
45.0
 41
0.1
 77
     0
 78
     1
 53
45.0
 43
0.0
 44
0.0
 45
-0.0707106781186548
 46
0.0707106781186548
 79
     0
 98
        1
 10
0.0
 20
0.0
  0
HATCH
  5
304
330
71
100
AcDbEntity
  8
1
  6
Continuous
 62
     2
100
AcDbHatch
 10
0.0
 20
0.0
 30
0.0
210
0.0
220
0.0
230
1.0
  2
_USER
 70
     0
 71
     1
 91
        2
 92
        1
 93
        8
 72
     1
 10
-40.84565821435308
 20
35.69350024038391
 11
-41.05713826782886
 21
36.23446078460179
 72
     1
 10
-41.05713826782886
 20
36.23446078460179
 11
-42.18957984450267
 21
36.23446078460179
 72
     1
 10
-42.18957984450267
 20
36.23446078460179
 11
-42.40105989797849
 21
35.69350024038391
 72
     1
 10
-42.40105989797849
 20
35.69350024038391
 11
-43.64156430823147
 21
35.69350024038391
 72
     1
 10
-43.64156430823147
 20
35.69350024038391
 11
-42.24361126129216
 21
38.747309764195
 72
     1
 10
-42.24361126129216
 20
38.747309764195
 11
-41.00310685103946
 21
38.747309764195
 72
     1
 10
-41.00310685103946
 20
38.747309764195
 11
-39.60515380409916
 21
35.69350024038391
 72
     1
 10
-39.60515380409916
 20
35.69350024038391
 11
-40.84565821435308
 21
35.69350024038391
 97
        8
330
282
330
283
330
23A
330
284
330
239
330
23C
330
281
330
23B
 92
       16
 93
        3
 72
     1
 10
-41.92352429335767
 20
36.9150240499084
 11
-41.62335905616527
 21
37.6828390158951
 72
     1
 10
-41.62335905616527
 20
37.6828390158951
 11
-41.32319381897517
 21
36.9150240499084
 72
     1
 10
-41.32319381897517
 20
36.9150240499084
 11
-41.92352429335767
 21
36.9150240499084
 97
        3
330
238
330
286
330
285
 75
     1
 76
     0
 52
45.0
 41
0.1
 77
     0
 78
     1
 53
45.0
 43
0.0
 44
0.0
 45
-0.0707106781186548
 46
0.0707106781186548
 79
     0
 98
        1
 10
0.0
 20
0.0
  0
HATCH
  5
305
330
71
100
AcDbEntity
  8
1
  6
Continuous
 62
     2
100
AcDbHatch
 10
0.0
 20
0.0
 30
0.0
210
0.0
220
0.0
230
1.0
  2
_USER
 70
     0
 71
     1
 91
        2
 92
        1
 93
        8
 72
     1
 10
-40.84565821435308
 20
35.69350024038391
 11
-41.05713826782886
 21
36.23446078460179
 72
     1
 10
-41.05713826782886
 20
36.23446078460179
 11
-42.18957984450267
 21
36.23446078460179
 72
     1
 10
-42.18957984450267
 20
36.23446078460179
 11
-42.40105989797849
 21
35.69350024038391
 72
     1
 10
-42.40105989797849
 20
35.69350024038391
 11
-43.64156430823147
 21
35.69350024038391
 72
     1
 10
-43.64156430823147
 20
35.69350024038391
 11
-42.24361126129216
 21
38.747309764195
 72
     1
 10
-42.24361126129216
 20
38.747309764195
 11
-41.00310685103946
 21
38.747309764195
 72
     1
 10
-41.00310685103946
 20
38.747309764195
 11
-39.60515380409916
 21
35.69350024038391
 72
     1
 10
-39.60515380409916
 20
35.69350024038391
 11
-40.84565821435308
 21
35.69350024038391
 97
        8
330
282
330
283
330
23A
330
284
330
239
330
23C
330
281
330
23B
 92
       16
 93
        3
 72
     1
 10
-41.92352429335767
 20
36.9150240499084
 11
-41.62335905616527
 21
37.6828390158951
 72
     1
 10
-41.62335905616527
 20
37.6828390158951
 11
-41.32319381897517
 21
36.9150240499084
 72
     1
 10
-41.32319381897517
 20
36.9150240499084
 11
-41.92352429335767
 21
36.9150240499084
 97
        3
330
238
330
286
330
285
 75
     1
 76
     0
 52
45.0
 41
0.1
 77
     0
 78
     1
 53
45.0
 43
0.0
 44
0.0
 45
-0.0707106781186548
 46
0.0707106781186548
 79
     0
 98
        1
 10
0.0
 20
0.0
  0
HATCH
  5
306
330
71
100
AcDbEntity
  8
1
  6
Continuous
 62
     2
100
AcDbHatch
 10
0.0
 20
0.0
 30
0.0
210
0.0
220
0.0
230
1.0
  2
_USER
 70
     0
 71
     1
 91
        1
 92
        1
 93
        4
 72
     1
 10
-39.21470980056716
 20
39.0526907165582
 11
-40.45521421082006
 21
39.0526907165582
 72
     1
 10
-40.45521421082006
 20
39.0526907165582
 11
-40.45521421082006
 21
42.1065002403694
 72
     1
 10
-40.45521421082006
 20
42.1065002403694
 11
-39.21470980056716
 21
42.1065002403694
 72
     1
 10
-39.21470980056716
 20
42.1065002403694
 11
-39.21470980056716
 21
39.0526907165582
 97
        4
330
235
330
237
330
287
330
236
 75
     1
 76
     0
 52
45.0
 41
0.1
 77
     0
 78
     1
 53
45.0
 43
0.0
 44
0.0
 45
-0.0707106781186548
 46
0.0707106781186548
 79
     0
 98
        1
 10
0.0
 20
0.0
  0
HATCH
  5
307
330
71
100
AcDbEntity
  8
1
  6
Continuous
 62
     2
100
AcDbHatch
 10
0.0
 20
0.0
 30
0.0
210
0.0
220
0.0
230
1.0
  2
_USER
 70
     0
 71
     1
 91
        1
 92
        1
 93
        4
 72
     1
 10
-39.21470980056716
 20
39.0526907165582
 11
-40.45521421082006
 21
39.0526907165582
 72
     1
 10
-40.45521421082006
 20
39.0526907165582
 11
-40.45521421082006
 21
42.1065002403694
 72
     1
 10
-40.45521421082006
 20
42.1065002403694
 11
-39.21470980056716
 21
42.1065002403694
 72
     1
 10
-39.21470980056716
 20
42.1065002403694
 11
-39.21470980056716
 21
39.0526907165582
 97
        4
330
235
330
237
330
287
330
236
 75
     1
 76
     0
 52
45.0
 41
0.1
 77
     0
 78
     1
 53
45.0
 43
0.0
 44
0.0
 45
-0.0707106781186548
 46
0.0707106781186548
 79
     0
 98
        1
 10
0.0
 20
0.0
  0
HATCH
  5
308
330
71
100
AcDbEntity
  8
1
  6
Continuous
 62
     2
100
AcDbHatch
 10
0.0
 20
0.0
 30
0.0
210
0.0
220
0.0
230
1.0
  2
_USER
 70
     0
 71
     1
 91
        1
 92
        1
 93
       12
 72
     1
 10
-34.99222363489636
 20
42.1065002403694
 11
-36.29475326566288
 21
40.6335497103332
 72
     1
 10
-36.29475326566288
 20
40.6335497103332
 11
-34.89680021872258
 21
39.0526907165582
 72
     1
 10
-34.89680021872258
 20
39.0526907165582
 11
-36.29952443647088
 21
39.0526907165582
 72
     1
 10
-36.29952443647088
 20
39.0526907165582
 11
-36.99611537453637
 21
39.84042250185192
 72
     1
 10
-36.99611537453637
 20
39.84042250185192
 11
-37.69270631260207
 21
39.0526907165582
 72
     1
 10
-37.69270631260207
 20
39.0526907165582
 11
-39.09543053035029
 21
39.0526907165582
 72
     1
 10
-39.09543053035029
 20
39.0526907165582
 11
-37.69747748340998
 21
40.6335497103332
 72
     1
 10
-37.69747748340998
 20
40.6335497103332
 11
-39.00000711417746
 21
42.1065002403694
 72
     1
 10
-39.00000711417746
 20
42.1065002403694
 11
-37.59728289642817
 21
42.1065002403694
 72
     1
 10
-37.59728289642817
 20
42.1065002403694
 11
-36.99611537453637
 21
41.42667691881391
 72
     1
 10
-36.99611537453637
 20
41.42667691881391
 11
-36.39494785264358
 21
42.1065002403694
 72
     1
 10
-36.39494785264358
 20
42.1065002403694
 11
-34.99222363489636
 21
42.1065002403694
 97
       12
330
230
330
22F
330
22E
330
28B
330
28C
330
288
330
289
330
234
330
233
330
232
330
231
330
28A
 75
     1
 76
     0
 52
45.0
 41
0.1
 77
     0
 78
     1
 53
45.0
 43
0.0
 44
0.0
 45
-0.0707106781186548
 46
0.0707106781186548
 79
     0
 98
        1
 10
0.0
 20
0.0
  0
HATCH
  5
309
330
71
100
AcDbEntity
  8
1
  6
Continuous
 62
     2
100
AcDbHatch
 10
0.0
 20
0.0
 30
0.0
210
0.0
220
0.0
230
1.0
  2
_USER
 70
     0
 71
     1
 91
        1
 92
        1
 93
       12
 72
     1
 10
-34.99222363489636
 20
42.1065002403694
 11
-36.29475326566288
 21
40.6335497103332
 72
     1
 10
-36.29475326566288
 20
40.6335497103332
 11
-34.89680021872258
 21
39.0526907165582
 72
     1
 10
-34.89680021872258
 20
39.0526907165582
 11
-36.29952443647088
 21
39.0526907165582
 72
     1
 10
-36.29952443647088
 20
39.0526907165582
 11
-36.99611537453637
 21
39.84042250185192
 72
     1
 10
-36.99611537453637
 20
39.84042250185192
 11
-37.69270631260207
 21
39.0526907165582
 72
     1
 10
-37.69270631260207
 20
39.0526907165582
 11
-39.09543053035029
 21
39.0526907165582
 72
     1
 10
-39.09543053035029
 20
39.0526907165582
 11
-37.69747748340998
 21
40.6335497103332
 72
     1
 10
-37.69747748340998
 20
40.6335497103332
 11
-39.00000711417746
 21
42.1065002403694
 72
     1
 10
-39.00000711417746
 20
42.1065002403694
 11
-37.59728289642817
 21
42.1065002403694
 72
     1
 10
-37.59728289642817
 20
42.1065002403694
 11
-36.99611537453637
 21
41.42667691881391
 72
     1
 10
-36.99611537453637
 20
41.42667691881391
 11
-36.39494785264358
 21
42.1065002403694
 72
     1
 10
-36.39494785264358
 20
42.1065002403694
 11
-34.99222363489636
 21
42.1065002403694
 97
       12
330
230
330
22F
330
22E
330
28B
330
28C
330
288
330
289
330
234
330
233
330
232
330
231
330
28A
 75
     1
 76
     0
 52
45.0
 41
0.1
 77
     0
 78
     1
 53
45.0
 43
0.0
 44
0.0
 45
-0.0707106781186548
 46
0.0707106781186548
 79
     0
 98
        1
 10
0.0
 20
0.0
  0
HATCH
  5
30A
330
71
100
AcDbEntity
  8
1
  6
Continuous
 62
     2
100
AcDbHatch
 10
0.0
 20
0.0
 30
0.0
210
0.0
220
0.0
230
1.0
  2
_USER
 70
     0
 71
     1
 91
        2
 92
        1
 93
        6
 72
     1
 10
-54.00995904904238
 20
39.99576895770201
 11
-54.76872663682266
 21
39.99576895770201
 72
     1
 10
-54.76872663682266
 20
39.99576895770201
 11
-54.76872663682266
 21
39.0526907165582
 72
     1
 10
-54.76872663682266
 20
39.0526907165582
 11
-56.00923104707678
 21
39.0526907165582
 72
     1
 10
-56.00923104707678
 20
39.0526907165582
 11
-56.00923104707678
 21
42.1065002403694
 72
     1
 10
-56.00923104707678
 20
42.1065002403694
 11
-54.00995904904238
 21
42.1065002403694
 72
     2
 10
-54.00995904904238
 20
41.05113459903572
 40
1.055365641333708
 50
270.0
 51
450.0
 73
     0
 97
        6
330
258
330
257
330
264
330
263
330
259
330
2A9
 92
       16
 93
        4
 72
     2
 10
-54.45143157528077
 20
41.09053057025821
 40
0.3528638246711182
 50
270.0
 51
450.0
 73
     1
 72
     1
 10
-54.45143157528077
 20
41.4433943949293
 11
-54.76872663682266
 21
41.4433943949293
 72
     1
 10
-54.76872663682266
 20
41.4433943949293
 11
-54.76872663682266
 21
40.73766674558709
 72
     1
 10
-54.76872663682266
 20
40.73766674558709
 11
-54.45143157528077
 21
40.73766674558709
 97
        4
330
2BD
330
255
330
265
330
256
 75
     1
 76
     0
 52
45.0
 41
0.1
 77
     0
 78
     1
 53
45.0
 43
0.0
 44
0.0
 45
-0.0707106781186548
 46
0.0707106781186548
 79
     0
 98
        1
 10
0.0
 20
0.0
  0
HATCH
  5
30B
330
71
100
AcDbEntity
  8
1
  6
Continuous
 62
     2
100
AcDbHatch
 10
0.0
 20
0.0
 30
0.0
210
0.0
220
0.0
230
1.0
  2
_USER
 70
     0
 71
     1
 91
        2
 92
        1
 93
        6
 72
     1
 10
-54.00995904904238
 20
39.99576895770201
 11
-54.76872663682266
 21
39.99576895770201
 72
     1
 10
-54.76872663682266
 20
39.99576895770201
 11
-54.76872663682266
 21
39.0526907165582
 72
     1
 10
-54.76872663682266
 20
39.0526907165582
 11
-56.00923104707678
 21
39.0526907165582
 72
     1
 10
-56.00923104707678
 20
39.0526907165582
 11
-56.00923104707678
 21
42.1065002403694
 72
     1
 10
-56.00923104707678
 20
42.1065002403694
 11
-54.00995904904238
 21
42.1065002403694
 72
     2
 10
-54.00995904904238
 20
41.05113459903572
 40
1.055365641333708
 50
270.0
 51
450.0
 73
     0
 97
        6
330
258
330
257
330
264
330
263
330
259
330
2A9
 92
       16
 93
        4
 72
     2
 10
-54.45143157528077
 20
41.09053057025821
 40
0.3528638246711182
 50
270.0
 51
450.0
 73
     1
 72
     1
 10
-54.45143157528077
 20
41.4433943949293
 11
-54.76872663682266
 21
41.4433943949293
 72
     1
 10
-54.76872663682266
 20
41.4433943949293
 11
-54.76872663682266
 21
40.73766674558709
 72
     1
 10
-54.76872663682266
 20
40.73766674558709
 11
-54.45143157528077
 21
40.73766674558709
 97
        4
330
2BD
330
255
330
265
330
256
 75
     1
 76
     0
 52
45.0
 41
0.1
 77
     0
 78
     1
 53
45.0
 43
0.0
 44
0.0
 45
-0.0707106781186548
 46
0.0707106781186548
 79
     0
 98
        1
 10
0.0
 20
0.0
  0
HATCH
  5
30C
330
71
100
AcDbEntity
  8
1
  6
Continuous
 62
     2
100
AcDbHatch
 10
0.0
 20
0.0
 30
0.0
210
0.0
220
0.0
230
1.0
  2
_USER
 70
     0
 71
     1
 91
        2
 92
        1
 93
        4
 72
     2
 10
-51.45341630068327
 20
36.68182999198641
 40
2.065479772208561
 50
62.45185182430628
 51
117.5481481756665
 73
     1
 72
     2
 10
-51.73435619251657
 20
37.2204050022892
 40
1.45803408365149
 50
117.5481481756624
 51
242.4518518243375
 73
     1
 72
     2
 10
-51.45341630068327
 20
37.7589800125925
 40
2.065479772208509
 50
242.4518518243402
 51
297.5481481756871
 73
     1
 72
     2
 10
-51.17247640884997
 20
37.2204050022892
 40
1.458034083651999
 50
297.5481481757009
 51
422.4518518242992
 73
     1
 97
        4
330
2B5
330
2B4
330
2B6
330
2B3
 92
       16
 93
        4
 72
     2
 10
-51.65315633702969
 20
37.2204050022892
 40
0.7717997786796947
 50
321.8795802028417
 51
398.1204197971533
 73
     1
 72
     2
 10
-51.45341630068327
 20
37.37713618040971
 40
0.5179085730132943
 50
38.12041979714752
 51
141.8795802028593
 73
     1
 72
     2
 10
-51.25367626433717
 20
37.2204050022892
 40
0.7717997786794689
 50
141.8795802028366
 51
218.1204197971684
 73
     1
 72
     2
 10
-51.45341630068327
 20
37.0636738241692
 40
0.5179085730137409
 50
218.1204197971927
 51
321.8795802028005
 73
     1
 97
        4
330
2D1
330
2CE
330
2CF
330
2D0
 75
     1
 76
     0
 52
45.0
 41
0.1
 77
     0
 78
     1
 53
45.0
 43
0.0
 44
0.0
 45
-0.0707106781186548
 46
0.0707106781186548
 79
     0
 98
        1
 10
0.0
 20
0.0
  0
HATCH
  5
30D
330
71
100
AcDbEntity
  8
1
  6
Continuous
 62
     2
100
AcDbHatch
 10
0.0
 20
0.0
 30
0.0
210
0.0
220
0.0
230
1.0
  2
_USER
 70
     0
 71
     1
 91
        2
 92
        1
 93
        4
 72
     2
 10
-51.45341630068327
 20
36.68182999198641
 40
2.065479772208561
 50
62.45185182430628
 51
117.5481481756665
 73
     1
 72
     2
 10
-51.73435619251657
 20
37.2204050022892
 40
1.45803408365149
 50
117.5481481756624
 51
242.4518518243375
 73
     1
 72
     2
 10
-51.45341630068327
 20
37.7589800125925
 40
2.065479772208509
 50
242.4518518243402
 51
297.5481481756871
 73
     1
 72
     2
 10
-51.17247640884997
 20
37.2204050022892
 40
1.458034083651999
 50
297.5481481757009
 51
422.4518518242992
 73
     1
 97
        4
330
2B5
330
2B4
330
2B6
330
2B3
 92
       16
 93
        4
 72
     2
 10
-51.65315633702969
 20
37.2204050022892
 40
0.7717997786796947
 50
321.8795802028417
 51
398.1204197971533
 73
     1
 72
     2
 10
-51.45341630068327
 20
37.37713618040971
 40
0.5179085730132943
 50
38.12041979714752
 51
141.8795802028593
 73
     1
 72
     2
 10
-51.25367626433717
 20
37.2204050022892
 40
0.7717997786794689
 50
141.8795802028366
 51
218.1204197971684
 73
     1
 72
     2
 10
-51.45341630068327
 20
37.0636738241692
 40
0.5179085730137409
 50
218.1204197971927
 51
321.8795802028005
 73
     1
 97
        4
330
2D1
330
2CE
330
2CF
330
2D0
 75
     1
 76
     0
 52
45.0
 41
0.1
 77
     0
 78
     1
 53
45.0
 43
0.0
 44
0.0
 45
-0.0707106781186548
 46
0.0707106781186548
 79
     0
 98
        1
 10
0.0
 20
0.0
  0
HATCH
  5
30E
330
71
100
AcDbEntity
  8
1
  6
Continuous
 62
     2
100
AcDbHatch
 10
0.0
 20
0.0
 30
0.0
210
0.0
220
0.0
230
1.0
  2
_USER
 70
     0
 71
     1
 91
        2
 92
        1
 93
       12
 72
     1
 10
-44.55842110627398
 20
41.40848663492642
 11
-45.89434893270166
 21
41.40848663492642
 72
     1
 10
-45.89434893270166
 20
41.40848663492642
 11
-45.89434893270166
 21
40.92860228118471
 72
     1
 10
-45.89434893270166
 20
40.92860228118471
 11
-44.55842110627398
 21
40.92860228118471
 72
     1
 10
-44.55842110627398
 20
40.92860228118471
 11
-44.55842110627398
 21
40.23058867574241
 72
     1
 10
-44.55842110627398
 20
40.23058867574241
 11
-45.89434893270166
 21
40.23058867574241
 72
     1
 10
-45.89434893270166
 20
40.23058867574241
 11
-45.89434893270166
 21
39.7507043220007
 72
     1
 10
-45.89434893270166
 20
39.7507043220007
 11
-44.55842110627398
 21
39.7507043220007
 72
     1
 10
-44.55842110627398
 20
39.7507043220007
 11
-44.55842110627398
 21
39.0526907165582
 72
     1
 10
-44.55842110627398
 20
39.0526907165582
 11
-47.70874083005498
 21
39.0526907165582
 72
     2
 10
-47.70874083005498
 20
40.57959547846352
 40
1.526904761905882
 50
90.0
 51
270.0
 73
     0
 72
     1
 10
-47.70874083005498
 20
42.1065002403694
 11
-44.55842110627398
 21
42.1065002403694
 72
     1
 10
-44.55842110627398
 20
42.1065002403694
 11
-44.55842110627398
 21
41.40848663492642
 97
       12
330
26C
330
2BE
330
26D
330
26E
330
26F
330
270
330
24D
330
24C
330
24B
330
24A
330
271
330
26B
 92
       16
 93
        4
 72
     2
 10
-47.49246881988978
 20
40.736326656584
 40
0.5179085730135321
 50
38.12041979714286
 51
141.8795802028489
 73
     1
 72
     2
 10
-47.29272878354348
 20
40.57959547846352
 40
0.7717997786796724
 50
141.8795802028404
 51
218.1204197971566
 73
     1
 72
     2
 10
-47.49246881988978
 20
40.42286430034309
 40
0.5179085730134415
 50
218.1204197971517
 51
321.8795802028565
 73
     1
 72
     2
 10
-47.69220885623597
 20
40.57959547846352
 40
0.7717997786796529
 50
321.879580202844
 51
398.1204197971589
 73
     1
 97
        4
330
2B8
330
2B7
330
2B2
330
2B1
 75
     1
 76
     0
 52
45.0
 41
0.1
 77
     0
 78
     1
 53
45.0
 43
0.0
 44
0.0
 45
-0.0707106781186548
 46
0.0707106781186548
 79
     0
 98
        1
 10
0.0
 20
0.0
  0
HATCH
  5
30F
330
71
100
AcDbEntity
  8
1
  6
Continuous
 62
     2
100
AcDbHatch
 10
0.0
 20
0.0
 30
0.0
210
0.0
220
0.0
230
1.0
  2
_USER
 70
     0
 71
     1
 91
        2
 92
        1
 93
       12
 72
     1
 10
-44.55842110627398
 20
41.40848663492642
 11
-45.89434893270166
 21
41.40848663492642
 72
     1
 10
-45.89434893270166
 20
41.40848663492642
 11
-45.89434893270166
 21
40.92860228118471
 72
     1
 10
-45.89434893270166
 20
40.92860228118471
 11
-44.55842110627398
 21
40.92860228118471
 72
     1
 10
-44.55842110627398
 20
40.92860228118471
 11
-44.55842110627398
 21
40.23058867574241
 72
     1
 10
-44.55842110627398
 20
40.23058867574241
 11
-45.89434893270166
 21
40.23058867574241
 72
     1
 10
-45.89434893270166
 20
40.23058867574241
 11
-45.89434893270166
 21
39.7507043220007
 72
     1
 10
-45.89434893270166
 20
39.7507043220007
 11
-44.55842110627398
 21
39.7507043220007
 72
     1
 10
-44.55842110627398
 20
39.7507043220007
 11
-44.55842110627398
 21
39.0526907165582
 72
     1
 10
-44.55842110627398
 20
39.0526907165582
 11
-47.70874083005498
 21
39.0526907165582
 72
     2
 10
-47.70874083005498
 20
40.57959547846352
 40
1.526904761905882
 50
90.0
 51
270.0
 73
     0
 72
     1
 10
-47.70874083005498
 20
42.1065002403694
 11
-44.55842110627398
 21
42.1065002403694
 72
     1
 10
-44.55842110627398
 20
42.1065002403694
 11
-44.55842110627398
 21
41.40848663492642
 97
       12
330
26C
330
2BE
330
26D
330
26E
330
26F
330
270
330
24D
330
24C
330
24B
330
24A
330
271
330
26B
 92
       16
 93
        4
 72
     2
 10
-47.49246881988978
 20
40.736326656584
 40
0.5179085730135321
 50
38.12041979714286
 51
141.8795802028489
 73
     1
 72
     2
 10
-47.29272878354348
 20
40.57959547846352
 40
0.7717997786796724
 50
141.8795802028404
 51
218.1204197971566
 73
     1
 72
     2
 10
-47.49246881988978
 20
40.42286430034309
 40
0.5179085730134415
 50
218.1204197971517
 51
321.8795802028565
 73
     1
 72
     2
 10
-47.69220885623597
 20
40.57959547846352
 40
0.7717997786796529
 50
321.879580202844
 51
398.1204197971589
 73
     1
 97
        4
330
2B8
330
2B7
330
2B2
330
2B1
 75
     1
 76
     0
 52
45.0
 41
0.1
 77
     0
 78
     1
 53
45.0
 43
0.0
 44
0.0
 45
-0.0707106781186548
 46
0.0707106781186548
 79
     0
 98
        1
 10
0.0
 20
0.0
  0
HATCH
  5
310
330
71
100
AcDbEntity
  8
1
  6
Continuous
 62
     2
100
AcDbHatch
 10
0.0
 20
0.0
 30
0.0
210
0.0
220
0.0
230
1.0
  2
_USER
 70
     0
 71
     1
 91
        4
 92
        1
 93
        8
 72
     1
 10
-56.48634812794359
 20
41.68225562496741
 11
-56.48634812794359
 21
36.1177448557672
 72
     2
 10
-56.91059274332747
 20
36.1177448557672
 40
0.4242446153832873
 50
0.0
 51
90.0
 73
     0
 72
     1
 10
-56.91059274332747
 20
35.69350024038391
 11
-62.38390483404427
 21
35.69350024038391
 72
     2
 10
-62.38390483404427
 20
36.1177448557672
 40
0.4242446153828041
 50
90.0
 51
180.0
 73
     0
 72
     1
 10
-62.80814944942708
 20
36.1177448557672
 11
-62.80814944942708
 21
41.68225562496741
 72
     2
 10
-62.38390483404427
 20
41.68225562496741
 40
0.4242446153837989
 50
180.0
 51
270.0
 73
     0
 72
     1
 10
-62.38390483404427
 20
42.10650024035121
 11
-56.91059274332747
 21
42.10650024035121
 72
     2
 10
-56.91059274332747
 20
41.68225562496741
 40
0.424244615383877
 50
270.0
 51
360.0
 73
     0
 97
        8
330
260
330
2AE
330
261
330
2B9
330
25E
330
2B0
330
25F
330
2AF
 92
       16
 93
        1
 72
     2
 10
-59.76431918352677
 20
39.36337339661191
 40
0.4709789327785145
 50
0.0
 51
360.0
 73
     1
 97
        1
330
2D4
 92
       16
 93
        8
 72
     2
 10
-59.21446147076608
 20
38.2542317966435
 40
0.31571692307652
 50
115.3740086783529
 51
180.0
 73
     1
 72
     1
 10
-59.53017839384287
 20
38.2542317966435
 11
-59.53017839384287
 21
37.67238038994842
 72
     2
 10
-59.21446147076608
 20
37.67238038994842
 40
0.3157169230767849
 50
180.0
 51
269.8110329574542
 73
     1
 72
     2
 10
-59.20884533545606
 20
39.3752153375174
 40
2.018561131933273
 50
269.8110329575858
 51
450.1889670424142
 73
     1
 72
     2
 10
-59.21446147076608
 20
41.07805028508651
 40
0.315716923076064
 50
90.18896704254594
 51
180.0
 73
     1
 72
     1
 10
-59.53017839384287
 20
41.07805028508651
 11
-59.53017839384287
 21
40.47251499657972
 72
     2
 10
-59.21446147076608
 20
40.47251499657972
 40
0.3157169230767849
 50
180.0
 51
244.6259913216482
 73
     1
 72
     2
 10
-59.74050416885396
 20
39.36337339661191
 40
0.9118481501444717
 50
295.3740086781928
 51
424.625991321824
 73
     0
 97
        8
330
2C6
330
227
330
2C3
330
2C4
330
2A2
330
226
330
2C5
330
2A1
 92
       16
 93
       12
 72
     2
 10
-61.79001015729779
 20
36.72177271901751
 40
0.3157169230756764
 50
180.0
 51
270.0
 73
     1
 72
     1
 10
-61.79001015729779
 20
36.4060557959408
 11
-60.31417689628816
 21
36.4060557959408
 72
     2
 10
-60.31417689628816
 20
36.72177271901751
 40
0.3157169230767067
 50
270.0
 51
360.0
 73
     1
 72
     1
 10
-59.99845997321157
 20
36.72177271901751
 11
-59.99845997321157
 21
38.25254365054911
 72
     2
 10
-60.31417689628816
 20
38.25254365054911
 40
0.315716923076593
 50
0.0
 51
64.80558935146027
 73
     1
 72
     2
 10
-59.79159244871318
 20
39.36337339661191
 40
0.9118975235576051
 50
115.1944106485115
 51
244.805589351472
 73
     0
 72
     2
 10
-60.31417689628816
 20
40.4742031426741
 40
0.3157169230761203
 50
295.1944106485397
 51
360.0
 73
     1
 72
     1
 10
-59.99845997321157
 20
40.4742031426741
 11
-59.99845997321157
 21
41.07822776173461
 72
     2
 10
-60.31417689628816
 20
41.07822776173461
 40
0.315716923076593
 50
0.0
 51
90.0
 73
     1
 72
     1
 10
-60.31417689628816
 20
41.39394468481081
 11
-61.79001015729779
 21
41.39394468481081
 72
     2
 10
-61.79001015729779
 20
41.07822776173461
 40
0.3157169230762022
 50
90.0
 51
180.0
 73
     1
 72
     1
 10
-62.10572708037347
 20
41.07822776173461
 11
-62.10572708037347
 21
36.72177271901751
 97
       12
330
2AA
330
262
330
2AD
330
25D
330
2BA
330
2BB
330
2AC
330
25C
330
2AB
330
25B
330
2BC
330
25A
 75
     1
 76
     0
 52
45.0
 41
0.1
 77
     0
 78
     1
 53
45.0
 43
0.0
 44
0.0
 45
-0.0707106781186548
 46
0.0707106781186548
 79
     0
 98
        1
 10
0.0
 20
0.0
  0
HATCH
  5
311
330
71
100
AcDbEntity
  8
1
  6
Continuous
 62
     2
100
AcDbHatch
 10
0.0
 20
0.0
 30
0.0
210
0.0
220
0.0
230
1.0
  2
_USER
 70
     0
 71
     1
 91
        4
 92
        1
 93
        8
 72
     1
 10
-56.48634812794359
 20
41.68225562496741
 11
-56.48634812794359
 21
36.1177448557672
 72
     2
 10
-56.91059274332747
 20
36.1177448557672
 40
0.4242446153832873
 50
0.0
 51
90.0
 73
     0
 72
     1
 10
-56.91059274332747
 20
35.69350024038391
 11
-62.38390483404427
 21
35.69350024038391
 72
     2
 10
-62.38390483404427
 20
36.1177448557672
 40
0.4242446153828041
 50
90.0
 51
180.0
 73
     0
 72
     1
 10
-62.80814944942708
 20
36.1177448557672
 11
-62.80814944942708
 21
41.68225562496741
 72
     2
 10
-62.38390483404427
 20
41.68225562496741
 40
0.4242446153837989
 50
180.0
 51
270.0
 73
     0
 72
     1
 10
-62.38390483404427
 20
42.10650024035121
 11
-56.91059274332747
 21
42.10650024035121
 72
     2
 10
-56.91059274332747
 20
41.68225562496741
 40
0.424244615383877
 50
270.0
 51
360.0
 73
     0
 97
        8
330
260
330
2AE
330
261
330
2B9
330
25E
330
2B0
330
25F
330
2AF
 92
       16
 93
        1
 72
     2
 10
-59.76431918352677
 20
39.36337339661191
 40
0.4709789327785145
 50
0.0
 51
360.0
 73
     1
 97
        1
330
2D4
 92
       16
 93
        8
 72
     2
 10
-59.21446147076608
 20
38.2542317966435
 40
0.31571692307652
 50
115.3740086783529
 51
180.0
 73
     1
 72
     1
 10
-59.53017839384287
 20
38.2542317966435
 11
-59.53017839384287
 21
37.67238038994842
 72
     2
 10
-59.21446147076608
 20
37.67238038994842
 40
0.3157169230767849
 50
180.0
 51
269.8110329574542
 73
     1
 72
     2
 10
-59.20884533545606
 20
39.3752153375174
 40
2.018561131933273
 50
269.8110329575858
 51
450.1889670424142
 73
     1
 72
     2
 10
-59.21446147076608
 20
41.07805028508651
 40
0.315716923076064
 50
90.18896704254594
 51
180.0
 73
     1
 72
     1
 10
-59.53017839384287
 20
41.07805028508651
 11
-59.53017839384287
 21
40.47251499657972
 72
     2
 10
-59.21446147076608
 20
40.47251499657972
 40
0.3157169230767849
 50
180.0
 51
244.6259913216482
 73
     1
 72
     2
 10
-59.74050416885396
 20
39.36337339661191
 40
0.9118481501444717
 50
295.3740086781928
 51
424.625991321824
 73
     0
 97
        8
330
2C6
330
227
330
2C3
330
2C4
330
2A2
330
226
330
2C5
330
2A1
 92
       16
 93
       12
 72
     2
 10
-61.79001015729779
 20
36.72177271901751
 40
0.3157169230756764
 50
180.0
 51
270.0
 73
     1
 72
     1
 10
-61.79001015729779
 20
36.4060557959408
 11
-60.31417689628816
 21
36.4060557959408
 72
     2
 10
-60.31417689628816
 20
36.72177271901751
 40
0.3157169230767067
 50
270.0
 51
360.0
 73
     1
 72
     1
 10
-59.99845997321157
 20
36.72177271901751
 11
-59.99845997321157
 21
38.25254365054911
 72
     2
 10
-60.31417689628816
 20
38.25254365054911
 40
0.315716923076593
 50
0.0
 51
64.80558935146027
 73
     1
 72
     2
 10
-59.79159244871318
 20
39.36337339661191
 40
0.9118975235576051
 50
115.1944106485115
 51
244.805589351472
 73
     0
 72
     2
 10
-60.31417689628816
 20
40.4742031426741
 40
0.3157169230761203
 50
295.1944106485397
 51
360.0
 73
     1
 72
     1
 10
-59.99845997321157
 20
40.4742031426741
 11
-59.99845997321157
 21
41.07822776173461
 72
     2
 10
-60.31417689628816
 20
41.07822776173461
 40
0.315716923076593
 50
0.0
 51
90.0
 73
     1
 72
     1
 10
-60.31417689628816
 20
41.39394468481081
 11
-61.79001015729779
 21
41.39394468481081
 72
     2
 10
-61.79001015729779
 20
41.07822776173461
 40
0.3157169230762022
 50
90.0
 51
180.0
 73
     1
 72
     1
 10
-62.10572708037347
 20
41.07822776173461
 11
-62.10572708037347
 21
36.72177271901751
 97
       12
330
2AA
330
262
330
2AD
330
25D
330
2BA
330
2BB
330
2AC
330
25C
330
2AB
330
25B
330
2BC
330
25A
 75
     1
 76
     0
 52
45.0
 41
0.1
 77
     0
 78
     1
 53
45.0
 43
0.0
 44
0.0
 45
-0.0707106781186548
 46
0.0707106781186548
 79
     0
 98
        1
 10
0.0
 20
0.0
  0
HATCH
  5
312
330
71
100
AcDbEntity
  8
1
  6
Continuous
 62
     2
100
AcDbHatch
 10
0.0
 20
0.0
 30
0.0
210
0.0
220
0.0
230
1.0
  2
_USER
 70
     0
 71
     1
 91
        1
 92
        1
 93
       18
 72
     1
 10
-34.89680021872258
 20
37.9620444580714
 11
-35.70789925619596
 21
37.9620444580714
 72
     1
 10
-35.70789925619596
 20
37.9620444580714
 11
-35.70789925619596
 21
35.69350024038391
 72
     1
 10
-35.70789925619596
 20
35.69350024038391
 11
-36.90069195836367
 21
35.69350024038391
 72
     1
 10
-36.90069195836367
 20
35.69350024038391
 11
-36.90069195836367
 21
37.9620444580714
 72
     1
 10
-36.90069195836367
 20
37.9620444580714
 11
-38.00433125793177
 21
37.9620444580714
 72
     2
 10
-38.00433125793177
 20
37.00752145124531
 40
0.9545230068260864
 50
90.0
 51
109.337143219432
 73
     1
 72
     2
 10
-38.15100125603547
 20
37.4254764316282
 40
0.5115800601944143
 50
109.3371432194853
 51
151.4785267424225
 73
     1
 72
     2
 10
-37.77364399795408
 20
37.2204050022892
 40
0.9410597353348924
 50
151.4785267423624
 51
208.5214732576695
 73
     1
 72
     2
 10
-38.15100125603547
 20
37.01533357295071
 40
0.5115800601960215
 50
208.5214732576866
 51
246.627722111846
 73
     1
 72
     2
 10
-37.99456122333237
 20
37.37732559166071
 40
0.9059297849852838
 50
246.6277221118188
 51
288.4480761180819
 73
     1
 72
     2
 10
-38.41272895699427
 20
38.6308713676973
 40
2.227384008972746
 50
288.4480761181335
 51
301.9309089499397
 73
     1
 72
     1
 10
-37.23467391497036
 20
36.74052064854752
 11
-37.23467391497036
 21
35.8680036417442
 72
     2
 10
-38.57060183208708
 20
40.5330859475456
 40
4.852596863498825
 50
74.02000874166129
 51
84.84185523036365
 73
     0
 72
     2
 10
-38.28174573735126
 20
37.33319536432401
 40
1.63969512394045
 50
84.8418552303238
 51
164.9381082228986
 73
     0
 72
     2
 10
-38.70087358081287
 20
37.2204050022892
 40
1.205656168393002
 50
164.9381082229038
 51
195.0618917770972
 73
     0
 72
     2
 10
-38.28174573735126
 20
37.1076146402543
 40
1.639695123940214
 50
195.061891777105
 51
270.0
 73
     0
 72
     1
 10
-38.28174573735126
 20
38.74730976419451
 11
-34.89680021872258
 21
38.747309764195
 72
     1
 10
-34.89680021872258
 20
38.747309764195
 11
-34.89680021872258
 21
37.9620444580714
 97
       18
330
229
330
2BF
330
2C0
330
2A8
330
2A7
330
28D
330
2A6
330
2A5
330
2C1
330
2A4
330
2C2
330
2A3
330
28E
330
228
330
22D
330
22C
330
22B
330
22A
 75
     1
 76
     0
 52
45.0
 41
0.1
 77
     0
 78
     1
 53
45.0
 43
0.0
 44
0.0
 45
-0.0707106781186548
 46
0.0707106781186548
 79
     0
 98
        1
 10
0.0
 20
0.0
  0
HATCH
  5
313
330
71
100
AcDbEntity
  8
1
  6
Continuous
 62
     2
100
AcDbHatch
 10
0.0
 20
0.0
 30
0.0
210
0.0
220
0.0
230
1.0
  2
_USER
 70
     0
 71
     1
 91
        1
 92
        1
 93
       18
 72
     1
 10
-34.89680021872258
 20
37.9620444580714
 11
-35.70789925619596
 21
37.9620444580714
 72
     1
 10
-35.70789925619596
 20
37.9620444580714
 11
-35.70789925619596
 21
35.69350024038391
 72
     1
 10
-35.70789925619596
 20
35.69350024038391
 11
-36.90069195836367
 21
35.69350024038391
 72
     1
 10
-36.90069195836367
 20
35.69350024038391
 11
-36.90069195836367
 21
37.9620444580714
 72
     1
 10
-36.90069195836367
 20
37.9620444580714
 11
-38.00433125793177
 21
37.9620444580714
 72
     2
 10
-38.00433125793177
 20
37.00752145124531
 40
0.9545230068260864
 50
90.0
 51
109.337143219432
 73
     1
 72
     2
 10
-38.15100125603547
 20
37.4254764316282
 40
0.5115800601944143
 50
109.3371432194853
 51
151.4785267424225
 73
     1
 72
     2
 10
-37.77364399795408
 20
37.2204050022892
 40
0.9410597353348924
 50
151.4785267423624
 51
208.5214732576695
 73
     1
 72
     2
 10
-38.15100125603547
 20
37.01533357295071
 40
0.5115800601960215
 50
208.5214732576866
 51
246.627722111846
 73
     1
 72
     2
 10
-37.99456122333237
 20
37.37732559166071
 40
0.9059297849852838
 50
246.6277221118188
 51
288.4480761180819
 73
     1
 72
     2
 10
-38.41272895699427
 20
38.6308713676973
 40
2.227384008972746
 50
288.4480761181335
 51
301.9309089499397
 73
     1
 72
     1
 10
-37.23467391497036
 20
36.74052064854752
 11
-37.23467391497036
 21
35.8680036417442
 72
     2
 10
-38.57060183208708
 20
40.5330859475456
 40
4.852596863498825
 50
74.02000874166129
 51
84.84185523036365
 73
     0
 72
     2
 10
-38.28174573735126
 20
37.33319536432401
 40
1.63969512394045
 50
84.8418552303238
 51
164.9381082228986
 73
     0
 72
     2
 10
-38.70087358081287
 20
37.2204050022892
 40
1.205656168393002
 50
164.9381082229038
 51
195.0618917770972
 73
     0
 72
     2
 10
-38.28174573735126
 20
37.1076146402543
 40
1.639695123940214
 50
195.061891777105
 51
270.0
 73
     0
 72
     1
 10
-38.28174573735126
 20
38.74730976419451
 11
-34.89680021872258
 21
38.747309764195
 72
     1
 10
-34.89680021872258
 20
38.747309764195
 11
-34.89680021872258
 21
37.9620444580714
 97
       18
330
229
330
2BF
330
2C0
330
2A8
330
2A7
330
28D
330
2A6
330
2A5
330
2C1
330
2A4
330
2C2
330
2A3
330
28E
330
228
330
22D
330
22C
330
22B
330
22A
 75
     1
 76
     0
 52
45.0
 41
0.1
 77
     0
 78
     1
 53
45.0
 43
0.0
 44
0.0
 45
-0.0707106781186548
 46
0.0707106781186548
 79
     0
 98
        1
 10
0.0
 20
0.0
  0
HATCH
  5
314
330
71
100
AcDbEntity
  8
1
  6
Continuous
 62
     2
100
AcDbHatch
 10
0.0
 20
0.0
 30
0.0
210
0.0
220
0.0
230
1.0
  2
_USER
 70
     0
 71
     1
 91
        1
 92
        1
 93
       14
 72
     2
 10
-54.38444721660417
 20
37.1076146402543
 40
1.639695123940506
 50
84.84185523036261
 51
164.9381082228864
 73
     1
 72
     2
 10
-54.80357506006698
 20
37.2204050022892
 40
1.205656168390937
 50
164.9381082228764
 51
195.0618917770949
 73
     1
 72
     2
 10
-54.38444721660417
 20
37.33319536432401
 40
1.639695123939387
 50
195.0618917770896
 51
275.1581447696393
 73
     1
 72
     2
 10
-54.67330331134008
 20
40.5330859475456
 40
4.852596863498138
 50
275.1581447696248
 51
285.9799912583529
 73
     1
 72
     1
 10
-53.33737539422228
 20
35.86800364174479
 11
-53.33737539422228
 21
36.740520648548
 72
     2
 10
-54.51543043624716
 20
38.63087136769789
 40
2.227384008972734
 50
58.0690910500407
 51
71.55192388186738
 73
     0
 72
     2
 10
-54.09726270258636
 20
37.37732559166071
 40
0.9059297849849257
 50
71.55192388184199
 51
113.3722778881288
 73
     0
 72
     2
 10
-54.25370273528839
 20
37.01533357295071
 40
0.511580060194791
 50
113.3722778881716
 51
151.4785267423037
 73
     0
 72
     2
 10
-53.87634547720808
 20
37.2204050022892
 40
0.941059735333242
 50
151.4785267422938
 51
208.5214732577335
 73
     0
 72
     2
 10
-54.25370273528839
 20
37.4254764316282
 40
0.5115800601948816
 50
208.5214732576963
 51
246.6277221118019
 73
     0
 72
     2
 10
-54.09726270258636
 20
37.0634844129176
 40
0.9059297849853138
 50
246.6277221118712
 51
288.4480761181463
 73
     0
 72
     2
 10
-54.51543043624716
 20
35.80993863688101
 40
2.227384008973484
 50
288.4480761181326
 51
301.9309089499592
 73
     0
 72
     1
 10
-53.33737539422228
 20
37.70028935603091
 11
-53.33737539422228
 21
38.5728063628342
 72
     2
 10
-54.67330331134008
 20
33.90772405703331
 40
4.852596863498062
 50
74.02000874164736
 51
84.84185523037513
 73
     1
 97
       14
330
2C7
330
2C8
330
2C9
330
2CA
330
28F
330
2A0
330
29F
330
29E
330
2CB
330
2CC
330
29D
330
2CD
330
290
330
29C
 75
     1
 76
     0
 52
45.0
 41
0.1
 77
     0
 78
     1
 53
45.0
 43
0.0
 44
0.0
 45
-0.0707106781186548
 46
0.0707106781186548
 79
     0
 98
        1
 10
0.0
 20
0.0
  0
HATCH
  5
315
330
71
100
AcDbEntity
  8
1
  6
Continuous
 62
     2
100
AcDbHatch
 10
0.0
 20
0.0
 30
0.0
210
0.0
220
0.0
230
1.0
  2
_USER
 70
     0
 71
     1
 91
        1
 92
        1
 93
       14
 72
     2
 10
-54.38444721660417
 20
37.1076146402543
 40
1.639695123940506
 50
84.84185523036261
 51
164.9381082228864
 73
     1
 72
     2
 10
-54.80357506006698
 20
37.2204050022892
 40
1.205656168390937
 50
164.9381082228764
 51
195.0618917770949
 73
     1
 72
     2
 10
-54.38444721660417
 20
37.33319536432401
 40
1.639695123939387
 50
195.0618917770896
 51
275.1581447696393
 73
     1
 72
     2
 10
-54.67330331134008
 20
40.5330859475456
 40
4.852596863498138
 50
275.1581447696248
 51
285.9799912583529
 73
     1
 72
     1
 10
-53.33737539422228
 20
35.86800364174479
 11
-53.33737539422228
 21
36.740520648548
 72
     2
 10
-54.51543043624716
 20
38.63087136769789
 40
2.227384008972734
 50
58.0690910500407
 51
71.55192388186738
 73
     0
 72
     2
 10
-54.09726270258636
 20
37.37732559166071
 40
0.9059297849849257
 50
71.55192388184199
 51
113.3722778881288
 73
     0
 72
     2
 10
-54.25370273528839
 20
37.01533357295071
 40
0.511580060194791
 50
113.3722778881716
 51
151.4785267423037
 73
     0
 72
     2
 10
-53.87634547720808
 20
37.2204050022892
 40
0.941059735333242
 50
151.4785267422938
 51
208.5214732577335
 73
     0
 72
     2
 10
-54.25370273528839
 20
37.4254764316282
 40
0.5115800601948816
 50
208.5214732576963
 51
246.6277221118019
 73
     0
 72
     2
 10
-54.09726270258636
 20
37.0634844129176
 40
0.9059297849853138
 50
246.6277221118712
 51
288.4480761181463
 73
     0
 72
     2
 10
-54.51543043624716
 20
35.80993863688101
 40
2.227384008973484
 50
288.4480761181326
 51
301.9309089499592
 73
     0
 72
     1
 10
-53.33737539422228
 20
37.70028935603091
 11
-53.33737539422228
 21
38.5728063628342
 72
     2
 10
-54.67330331134008
 20
33.90772405703331
 40
4.852596863498062
 50
74.02000874164736
 51
84.84185523037513
 73
     1
 97
       14
330
2C7
330
2C8
330
2C9
330
2CA
330
28F
330
2A0
330
29F
330
29E
330
2CB
330
2CC
330
29D
330
2CD
330
290
330
29C
 75
     1
 76
     0
 52
45.0
 41
0.1
 77
     0
 78
     1
 53
45.0
 43
0.0
 44
0.0
 45
-0.0707106781186548
 46
0.0707106781186548
 79
     0
 98
        1
 10
0.0
 20
0.0
  0
ENDBLK
  5
73
330
71
100
AcDbEntity
  8
0
100
AcDbBlockEnd
  0
BLOCK
  5
75
330
74
100
AcDbEntity
  8
0
100
AcDbBlockBegin
  2
_punkt
 70
     0
 10
62.50000019076033
 20
28.4000002403676
 30
0.0
  3
_punkt
  1

  0
LINE
  5
316
330
74
100
AcDbEntity
  8
1
  6
Continuous
 62
     2
100
AcDbLine
 10
62.50000019076033
 20
28.4000002403676
 30
0.0
 11
67.50000019075932
 21
28.4000002403676
 31
0.0
  0
LINE
  5
317
330
74
100
AcDbEntity
  8
1
  6
Continuous
 62
     2
100
AcDbLine
 10
62.50000019076033
 20
28.4000002403676
 30
0.0
 11
62.50000019076033
 21
23.40000024036749
 31
0.0
  0
ENDBLK
  5
76
330
74
100
AcDbEntity
  8
0
100
AcDbBlockEnd
  0
BLOCK
  5
7A
330
77
100
AcDbEntity
  8
0
100
AcDbBlockBegin
  2
A4I_CS
 70
     0
 10
62.50000019076033
 20
23.40000024036749
 30
0.0
  3
A4I_CS
  1

  0
INSERT
  5
78
330
77
100
AcDbEntity
  8
1
100
AcDbBlockReference
  2
_rahmen
 10
62.50000019076033
 20
23.40000024036749
 30
0.0
  0
INSERT
  5
79
330
77
100
AcDbEntity
  8
1
100
AcDbBlockReference
  2
_punkt
 10
62.50000019076033
 20
28.4000002403676
 30
0.0
  0
ENDBLK
  5
7B
330
77
100
AcDbEntity
  8
0
100
AcDbBlockEnd
  0
BLOCK
  5
84
330
7C
100
AcDbEntity
  8
0
100
AcDbBlockBegin
  2
1
 70
     0
 10
0.0
 20
0.0
 30
0.0
  3
1
  1

  0
INSERT
  5
7D
330
7C
100
AcDbEntity
  8
0
100
AcDbBlockReference
  2
Allg1
 10
2.99999999998579
 20
96.0
 30
0.0
  0
INSERT
  5
7E
330
7C
100
AcDbEntity
  8
0
100
AcDbBlockReference
  2
Drfsicht1
 10
-109.000000000018
 20
83.99999999999997
 30
0.0
  0
INSERT
  5
7F
330
7C
100
AcDbEntity
  8
0
100
AcDbBlockReference
  2
Rckans1
 10
14.0999999997152
 20
174.4500005720383
 30
0.0
  0
INSERT
  5
80
330
7C
100
AcDbEntity
  8
0
100
AcDbBlockReference
  2
SA_Links1
 10
-44.4500000001525
 20
174.4500005720383
 30
0.0
  0
INSERT
  5
81
330
7C
100
AcDbEntity
  8
0
100
AcDbBlockReference
  2
SA_Rechts1
 10
-192.5499999998472
 20
174.4500005720383
 30
0.0
  0
INSERT
  5
82
330
7C
100
AcDbEntity
  8
0
100
AcDbBlockReference
  2
Vordans1
 10
-109.000000000018
 20
174.4500005720383
 30
0.0
  0
INSERT
  5
83
330
7C
100
AcDbEntity
  8
0
100
AcDbBlockReference
  2
A4I_CS
 10
62.50000019076033
 20
23.40000024036749
 30
0.0
  0
ENDBLK
  5
85
330
7C
100
AcDbEntity
  8
0
100
AcDbBlockEnd
  0
BLOCK
  5
107
330
100
100
AcDbEntity
  8
0
100
AcDbBlockBegin
  2
*D17
 70
     1
 10
0.0
 20
0.0
 30
0.0
  3
*D17
  1

  0
LINE
  5
101
330
100
100
AcDbEntity
  8
1
  6
Continuous
 62
     2
100
AcDbLine
 10
-138.184618602979
 20
77.95000000018625
 30
0.0
 11
-138.184618602979
 21
90.05000000018626
 31
0.0
  0
LINE
  5
102
330
100
100
AcDbEntity
  8
1
  6
Continuous
 62
     2
100
AcDbLine
 10
-124.9183866198988
 20
77.95000000018625
 30
0.0
 11
-139.684618602979
 21
77.95000000018625
 31
0.0
  0
LINE
  5
103
330
100
100
AcDbEntity
  8
1
  6
Continuous
 62
     2
100
AcDbLine
 10
-124.9183866198988
 20
90.05000000018626
 30
0.0
 11
-139.684618602979
 21
90.05000000018626
 31
0.0
  0
SOLID
  5
104
330
100
100
AcDbEntity
  8
1
 62
     2
100
AcDbTrace
 10
-138.6454023445349
 20
81.45000000018625
 30
0.0
 11
-137.7238348614231
 21
81.45000000018625
 31
0.0
 12
-138.184618602979
 22
77.95000000018625
 32
0.0
 13
-138.184618602979
 23
77.95000000018625
 33
0.0
  0
SOLID
  5
105
330
100
100
AcDbEntity
  8
1
 62
     2
100
AcDbTrace
 10
-137.7238348614231
 20
86.55000000018626
 30
0.0
 11
-138.6454023445349
 21
86.55000000018626
 31
0.0
 12
-138.184618602979
 22
90.05000000018626
 32
0.0
 13
-138.184618602979
 23
90.05000000018626
 33
0.0
  0
MTEXT
  5
106
330
100
100
AcDbEntity
  8
1
 62
     3
100
AcDbMText
 10
-140.034618602979
 20
80.47755348650179
 30
0.0
 40
3.5
 41
0.0
 71
     7
 72
     1
  1
12,1
  7
CONVERTER_11
 11
0.0
 21
1.0
 31
0.0
 73
     1
 44
0.60024009603842
  0
ENDBLK
  5
108
330
100
100
AcDbEntity
  8
0
100
AcDbBlockEnd
  0
BLOCK
  5
1BA
330
1B3
100
AcDbEntity
  8
0
100
AcDbBlockBegin
  2
*D18
 70
     1
 10
0.0
 20
0.0
 30
0.0
  3
*D18
  1

  0
LINE
  5
1B4
330
1B3
100
AcDbEntity
  8
1
  6
Continuous
 62
     2
100
AcDbLine
 10
-126.5000003815295
 20
134.032257559853
 30
0.0
 11
-96.20000038152952
 21
134.032257559853
 31
0.0
  0
LINE
  5
1B5
330
1B3
100
AcDbEntity
  8
1
  6
Continuous
 62
     2
100
AcDbLine
 10
-126.5000003815295
 20
152.8500004805665
 30
0.0
 11
-126.5000003815295
 21
132.532257559853
 31
0.0
  0
LINE
  5
1B6
330
1B3
100
AcDbEntity
  8
1
  6
Continuous
 62
     2
100
AcDbLine
 10
-96.20000038152952
 20
152.8500004805328
 30
0.0
 11
-96.20000038152952
 21
132.532257559853
 31
0.0
  0
SOLID
  5
1B7
330
1B3
100
AcDbEntity
  8
1
 62
     2
100
AcDbTrace
 10
-123.0000003815295
 20
134.4930413014089
 30
0.0
 11
-123.0000003815295
 21
133.5714738182971
 31
0.0
 12
-126.5000003815295
 22
134.032257559853
 32
0.0
 13
-126.5000003815295
 23
134.032257559853
 33
0.0
  0
SOLID
  5
1B8
330
1B3
100
AcDbEntity
  8
1
 62
     2
100
AcDbTrace
 10
-99.70000038152952
 20
133.5714738182971
 30
0.0
 11
-99.70000038152952
 21
134.4930413014089
 31
0.0
 12
-96.20000038152952
 22
134.032257559853
 32
0.0
 13
-96.20000038152952
 23
134.032257559853
 33
0.0
  0
MTEXT
  5
1B9
330
1B3
100
AcDbEntity
  8
1
 62
     3
100
AcDbMText
 10
-115.050969684858
 20
135.882257559853
 30
0.0
 40
3.5
 41
0.0
 71
     7
 72
     1
  1
30,3
  7
CONVERTER_11
 11
0.9999999999970619
 21
2.424068405545306E-6
 31
0.0
 73
     1
 44
0.60024009603842
  0
ENDBLK
  5
1BB
330
1B3
100
AcDbEntity
  8
0
100
AcDbBlockEnd
  0
BLOCK
  5
1C5
330
1BE
100
AcDbEntity
  8
0
100
AcDbBlockBegin
  2
*D19
 70
     1
 10
0.0
 20
0.0
 30
0.0
  3
*D19
  1

  0
LINE
  5
1BF
330
1BE
100
AcDbEntity
  8
1
  6
Continuous
 62
     2
100
AcDbLine
 10
-131.5000003814847
 20
126.767335452752
 30
0.0
 11
-86.50000038148731
 21
126.767335452752
 31
0.0
  0
LINE
  5
1C0
330
1BE
100
AcDbEntity
  8
1
  6
Continuous
 62
     2
100
AcDbLine
 10
-131.5000003814847
 20
190.0500004805685
 30
0.0
 11
-131.5000003814847
 21
125.267335452752
 31
0.0
  0
LINE
  5
1C1
330
1BE
100
AcDbEntity
  8
1
  6
Continuous
 62
     2
100
AcDbLine
 10
-86.50000038148731
 20
190.850000480522
 30
0.0
 11
-86.50000038148731
 21
125.267335452752
 31
0.0
  0
SOLID
  5
1C2
330
1BE
100
AcDbEntity
  8
1
 62
     2
100
AcDbTrace
 10
-128.0000003814847
 20
127.2281191943079
 30
0.0
 11
-128.0000003814847
 21
126.3065517111961
 31
0.0
 12
-131.5000003814847
 22
126.767335452752
 32
0.0
 13
-131.5000003814847
 23
126.767335452752
 33
0.0
  0
SOLID
  5
1C3
330
1BE
100
AcDbEntity
  8
1
 62
     2
100
AcDbTrace
 10
-90.00000038148731
 20
126.3065517111961
 30
0.0
 11
-90.00000038148731
 21
127.2281191943079
 31
0.0
 12
-86.50000038148731
 22
126.767335452752
 32
0.0
 13
-86.50000038148731
 23
126.767335452752
 33
0.0
  0
MTEXT
  5
1C4
330
1BE
100
AcDbEntity
  8
1
 62
     3
100
AcDbMText
 10
-113.179335863428
 20
128.267335452752
 30
0.0
 40
3.5
 41
0.0
 71
     7
 72
     1
  1
45
  7
CONVERTER_11
 11
0.9999999999970619
 21
2.424068405545306E-6
 31
0.0
 73
     1
 44
0.60024009603842
  0
ENDBLK
  5
1C6
330
1BE
100
AcDbEntity
  8
0
100
AcDbBlockEnd
  0
BLOCK
  5
1D0
330
1C9
100
AcDbEntity
  8
0
100
AcDbBlockBegin
  2
*D20
 70
     1
 10
0.0
 20
0.0
 30
0.0
  3
*D20
  1

  0
LINE
  5
1CA
330
1C9
100
AcDbEntity
  8
1
  6
Continuous
 62
     2
100
AcDbLine
 10
-140.088731984966
 20
152.8500004805617
 30
0.0
 11
-140.088731984966
 21
204.8500004805488
 31
0.0
  0
LINE
  5
1CB
330
1C9
100
AcDbEntity
  8
1
  6
Continuous
 62
     2
100
AcDbLine
 10
-122.2000003815295
 20
152.8500004805617
 30
0.0
 11
-141.588731984966
 21
152.8500004805617
 31
0.0
  0
LINE
  5
1CC
330
1C9
100
AcDbEntity
  8
1
  6
Continuous
 62
     2
100
AcDbLine
 10
-110.6000003814665
 20
204.8500004805488
 30
0.0
 11
-141.588731984966
 21
204.8500004805488
 31
0.0
  0
SOLID
  5
1CD
330
1C9
100
AcDbEntity
  8
1
 62
     2
100
AcDbTrace
 10
-140.5495157265219
 20
156.3500004805617
 30
0.0
 11
-139.6279482434101
 21
156.3500004805617
 31
0.0
 12
-140.088731984966
 22
152.8500004805617
 32
0.0
 13
-140.088731984966
 23
152.8500004805617
 33
0.0
  0
SOLID
  5
1CE
330
1C9
100
AcDbEntity
  8
1
 62
     2
100
AcDbTrace
 10
-139.6279482434101
 20
201.3500004805488
 30
0.0
 11
-140.5495157265219
 21
201.3500004805488
 31
0.0
 12
-140.088731984966
 22
204.8500004805488
 32
0.0
 13
-140.088731984966
 23
204.8500004805488
 33
0.0
  0
MTEXT
  5
1CF
330
1C9
100
AcDbEntity
  8
1
 62
     3
100
AcDbMText
 10
-141.588731984966
 20
177.821651417087
 30
0.0
 40
3.5
 41
0.0
 71
     7
 72
     1
  1
52
  7
CONVERTER_11
 11
0.0
 21
1.0
 31
0.0
 73
     1
 44
0.60024009603842
  0
ENDBLK
  5
1D1
330
1C9
100
AcDbEntity
  8
0
100
AcDbBlockEnd
  0
BLOCK
  5
1DB
330
1D4
100
AcDbEntity
  8
0
100
AcDbBlockBegin
  2
*D21
 70
     1
 10
0.0
 20
0.0
 30
0.0
  3
*D21
  1

  0
LINE
  5
1D5
330
1D4
100
AcDbEntity
  8
1
  6
Continuous
 62
     2
100
AcDbLine
 10
-148.088731984966
 20
144.0500004805617
 30
0.0
 11
-148.088731984966
 21
204.8500004805488
 31
0.0
  0
LINE
  5
1D6
330
1D4
100
AcDbEntity
  8
1
  6
Continuous
 62
     2
100
AcDbLine
 10
-122.2000003815393
 20
144.0500004805617
 30
0.0
 11
-149.588731984966
 21
144.0500004805617
 31
0.0
  0
LINE
  5
1D7
330
1D4
100
AcDbEntity
  8
1
  6
Continuous
 62
     2
100
AcDbLine
 10
-110.6000003814665
 20
204.8500004805488
 30
0.0
 11
-149.588731984966
 21
204.8500004805488
 31
0.0
  0
SOLID
  5
1D8
330
1D4
100
AcDbEntity
  8
1
 62
     2
100
AcDbTrace
 10
-148.5495157265219
 20
147.5500004805617
 30
0.0
 11
-147.6279482434101
 21
147.5500004805617
 31
0.0
 12
-148.088731984966
 22
144.0500004805617
 32
0.0
 13
-148.088731984966
 23
144.0500004805617
 33
0.0
  0
SOLID
  5
1D9
330
1D4
100
AcDbEntity
  8
1
 62
     2
100
AcDbTrace
 10
-147.6279482434101
 20
201.3500004805488
 30
0.0
 11
-148.5495157265219
 21
201.3500004805488
 31
0.0
 12
-148.088731984966
 22
204.8500004805488
 32
0.0
 13
-148.088731984966
 23
204.8500004805488
 33
0.0
  0
MTEXT
  5
1DA
330
1D4
100
AcDbEntity
  8
1
 62
     3
100
AcDbMText
 10
-149.938731984966
 20
173.600338777438
 30
0.0
 40
3.5
 41
0.0
 71
     7
 72
     1
  1
60,8
  7
CONVERTER_11
 11
0.0
 21
1.0
 31
0.0
 73
     1
 44
0.60024009603842
  0
ENDBLK
  5
1DC
330
1D4
100
AcDbEntity
  8
0
100
AcDbBlockEnd
  0
ENDSEC
  0
SECTION
  2
ENTITIES
  0
INSERT
  5
86
330
1F
100
AcDbEntity
  8
1
100
AcDbBlockReference
  2
1
 10
0.0
 20
0.0
 30
0.0
  0
ENDSEC
  0
SECTION
  2
OBJECTS
  0
DICTIONARY
  5
C
330
0
100
AcDbDictionary
281
     1
  3
ACAD_GROUP
350
D
  3
ACAD_LAYOUT
350
1A
  3
ACAD_MATERIAL
350
3B
  3
ACAD_MLEADERSTYLE
350
33F
  3
ACAD_MLINESTYLE
350
17
  3
ACAD_PLOTSETTINGS
350
19
  3
ACAD_PLOTSTYLENAME
350
E
  3
ACAD_TABLESTYLE
350
33E
  3
ACAD_VISUALSTYLE
350
2A
  0
DICTIONARY
  5
D
102
{ACAD_REACTORS
330
C
102
}
330
C
100
AcDbDictionary
281
     1
  0
DICTIONARY
  5
1A
102
{ACAD_REACTORS
330
C
102
}
330
C
100
AcDbDictionary
281
     1
  3
Layout1
350
1E
  3
Layout2
350
26
  3
Model
350
22
  0
DICTIONARY
  5
3B
102
{ACAD_REACTORS
330
C
102
}
330
C
100
AcDbDictionary
281
     1
  3
ByBlock
350
3D
  3
ByLayer
350
3C
  3
Global
350
3E
  0
DICTIONARY
  5
33F
102
{ACAD_REACTORS
330
C
102
}
330
C
100
AcDbDictionary
281
     1
  0
DICTIONARY
  5
17
102
{ACAD_REACTORS
330
C
102
}
330
C
100
AcDbDictionary
281
     1
  3
Standard
350
18
  0
DICTIONARY
  5
19
102
{ACAD_REACTORS
330
C
102
}
330
C
100
AcDbDictionary
281
     1
  0
ACDBDICTIONARYWDFLT
  5
E
102
{ACAD_REACTORS
330
C
102
}
330
C
100
AcDbDictionary
281
     1
  3
Normal
350
F
100
AcDbDictionaryWithDefault
340
F
  0
DICTIONARY
  5
33E
102
{ACAD_REACTORS
330
C
102
}
330
C
100
AcDbDictionary
281
     1
  0
DICTIONARY
  5
2A
102
{ACAD_REACTORS
330
C
102
}
330
C
100
AcDbDictionary
281
     1
  3
2dWireframe
350
2F
  3
3D Hidden
350
31
  3
3dWireframe
350
30
  3
Basic
350
32
  3
Brighten
350
36
  3
ColorChange
350
3A
  3
Conceptual
350
34
  3
Dim
350
35
  3
Facepattern
350
39
  3
Flat
350
2B
  3
FlatWithEdges
350
2C
  3
Gouraud
350
2D
  3
GouraudWithEdges
350
2E
  3
Linepattern
350
38
  3
Realistic
350
33
  3
Thicken
350
37
  0
LAYOUT
  5
1E
102
{ACAD_REACTORS
330
1A
102
}
330
1A
100
AcDbPlotSettings
  1

  2
none_device
  4

  6

 40
0.0
 41
0.0
 42
0.0
 43
0.0
 44
0.0
 45
0.0
 46
0.0
 47
0.0
 48
0.0
 49
0.0
140
0.0
141
0.0
142
1.0
143
1.0
 70
   688
 72
     0
 73
     0
 74
     5
  7

 75
    16
 76
     0
 77
     2
 78
   300
147
1.0
148
0.0
149
0.0
100
AcDbLayout
  1
Layout1
 70
     1
 71
     1
 10
0.0
 20
0.0
 11
12.0
 21
9.0
 12
0.0
 22
0.0
 32
0.0
 14
1.00000000000000E+20
 24
1.00000000000000E+20
 34
1.00000000000000E+20
 15
-1.00000000000000E+20
 25
-1.00000000000000E+20
 35
-1.00000000000000E+20
146
0.0
 13
0.0
 23
0.0
 33
0.0
 16
1.0
 26
0.0
 36
0.0
 17
0.0
 27
1.0
 37
0.0
 76
     0
330
1B
  0
LAYOUT
  5
26
102
{ACAD_REACTORS
330
1A
102
}
330
1A
100
AcDbPlotSettings
  1

  2
none_device
  4

  6

 40
0.0
 41
0.0
 42
0.0
 43
0.0
 44
0.0
 45
0.0
 46
0.0
 47
0.0
 48
0.0
 49
0.0
140
0.0
141
0.0
142
1.0
143
1.0
 70
   688
 72
     0
 73
     0
 74
     5
  7

 75
    16
 76
     0
 77
     2
 78
   300
147
1.0
148
0.0
149
0.0
100
AcDbLayout
  1
Layout2
 70
     1
 71
     2
 10
0.0
 20
0.0
 11
0.0
 21
0.0
 12
0.0
 22
0.0
 32
0.0
 14
0.0
 24
0.0
 34
0.0
 15
0.0
 25
0.0
 35
0.0
146
0.0
 13
0.0
 23
0.0
 33
0.0
 16
1.0
 26
0.0
 36
0.0
 17
0.0
 27
1.0
 37
0.0
 76
     0
330
23
  0
LAYOUT
  5
22
102
{ACAD_REACTORS
330
1A
102
}
330
1A
100
AcDbPlotSettings
  1

  2
none_device
  4

  6

 40
0.0
 41
0.0
 42
0.0
 43
0.0
 44
0.0
 45
0.0
 46
0.0
 47
0.0
 48
0.0
 49
0.0
140
0.0
141
0.0
142
1.0
143
1.0
 70
  1712
 72
     0
 73
     0
 74
     0
  7

 75
     0
 76
     0
 77
     2
 78
   300
147
1.0
148
0.0
149
0.0
100
AcDbLayout
  1
Model
 70
     1
 71
     0
 10
0.0
 20
0.0
 11
12.0
 21
9.0
 12
0.0
 22
0.0
 32
0.0
 14
-229.4999998092387
 24
23.40000024036749
 34
0.0
 15
67.50000019075932
 25
233.4000002403676
 35
0.0
146
0.0
 13
0.0
 23
0.0
 33
0.0
 16
1.0
 26
0.0
 36
0.0
 17
0.0
 27
1.0
 37
0.0
 76
     0
330
1F
331
29
  0
MATERIAL
  5
3D
102
{ACAD_REACTORS
330
3B
102
}
102
{ACAD_XDICTIONARY
360
33A
102
}
330
3B
100
AcDbMaterial
  1
ByBlock
  0
MATERIAL
  5
3C
102
{ACAD_REACTORS
330
3B
102
}
102
{ACAD_XDICTIONARY
360
338
102
}
330
3B
100
AcDbMaterial
  1
ByLayer
  0
MATERIAL
  5
3E
102
{ACAD_REACTORS
330
3B
102
}
102
{ACAD_XDICTIONARY
360
33C
102
}
330
3B
100
AcDbMaterial
  1
Global
  0
MLINESTYLE
  5
18
102
{ACAD_REACTORS
330
17
102
}
330
17
100
AcDbMlineStyle
  2
Standard
 70
     0
  3

 62
   256
 51
90.0
 52
90.0
 71
     2
 49
0.5
 62
   256
  6
BYLAYER
 49
-0.5
 62
   256
  6
BYLAYER
  0
ACDBPLACEHOLDER
  5
F
102
{ACAD_REACTORS
330
E
102
}
330
E
  0
VISUALSTYLE
  5
2F
102
{ACAD_REACTORS
330
2A
102
}
102
{ACAD_XDICTIONARY
360
320
102
}
330
2A
100
AcDbVisualStyle
  2
2dWireframe
 70
     4
 71
     0
 72
     2
 73
     0
 90
        0
 40
-0.6
 41
-30.0
 62
     5
 63
     7
421
 16777215
 74
     1
 91
        4
 64
     7
 65
   257
 75
     1
175
     1
 42
1.0
 92
        0
 66
   257
 43
1.0
 76
     1
 77
     6
 78
     2
 67
     7
 79
     5
170
     0
171
     0
290
     0
174
     0
 93
        1
 44
0.0
173
     0
291
     0
 45
0.0
1001
ACAD
1000
AcDbSavedByObjectVersion
1070
     0
  0
VISUALSTYLE
  5
31
102
{ACAD_REACTORS
330
2A
102
}
102
{ACAD_XDICTIONARY
360
324
102
}
330
2A
100
AcDbVisualStyle
  2
3D Hidden
 70
     6
 71
     1
 72
     2
 73
     2
 90
        0
 40
-0.6
 41
-30.0
 62
     5
 63
     7
421
 16777215
 74
     2
 91
        2
 64
     7
 65
   257
 75
     2
175
     1
 42
40.0
 92
        0
 66
   257
 43
1.0
 76
     1
 77
     6
 78
     2
 67
     7
 79
     3
170
     0
171
     0
290
     0
174
     0
 93
        1
 44
0.0
173
     0
291
     0
 45
0.0
1001
ACAD
1000
AcDbSavedByObjectVersion
1070
     0
  0
VISUALSTYLE
  5
30
102
{ACAD_REACTORS
330
2A
102
}
102
{ACAD_XDICTIONARY
360
322
102
}
330
2A
100
AcDbVisualStyle
  2
3dWireframe
 70
     5
 71
     0
 72
     2
 73
     0
 90
        0
 40
-0.6
 41
-30.0
 62
     5
 63
     7
421
 16777215
 74
     1
 91
        4
 64
     7
 65
   257
 75
     1
175
     1
 42
1.0
 92
        0
 66
   257
 43
1.0
 76
     1
 77
     6
 78
     2
 67
     7
 79
     5
170
     0
171
     0
290
     0
174
     0
 93
        1
 44
0.0
173
     0
291
     0
 45
0.0
1001
ACAD
1000
AcDbSavedByObjectVersion
1070
     0
  0
VISUALSTYLE
  5
32
102
{ACAD_REACTORS
330
2A
102
}
102
{ACAD_XDICTIONARY
360
326
102
}
330
2A
100
AcDbVisualStyle
  2
Basic
 70
     7
 71
     1
 72
     0
 73
     1
 90
        0
 40
-0.6
 41
-30.0
 62
     5
 63
     7
421
 16777215
 74
     0
 91
        4
 64
     7
 65
   257
 75
     1
175
     1
 42
1.0
 92
        8
 66
     7
 43
1.0
 76
     1
 77
     6
 78
     2
 67
     7
 79
     5
170
     0
171
     0
290
     0
174
     0
 93
        1
 44
0.0
173
     0
291
     1
 45
0.0
1001
ACAD
1000
AcDbSavedByObjectVersion
1070
     0
  0
VISUALSTYLE
  5
36
102
{ACAD_REACTORS
330
2A
102
}
102
{ACAD_XDICTIONARY
360
32E
102
}
330
2A
100
AcDbVisualStyle
  2
Brighten
 70
    12
 71
     2
 72
     2
 73
     0
 90
        0
 40
-0.6
 41
-30.0
 62
     5
 63
     7
421
 16777215
 74
     1
 91
        4
 64
     7
 65
   257
 75
     1
175
     1
 42
1.0
 92
        8
 66
     7
 43
1.0
 76
     1
 77
     6
 78
     2
 67
     7
 79
     5
170
     0
171
     0
290
     0
174
     0
 93
        1
 44
50.0
173
     0
291
     1
 45
0.0
1001
ACAD
1000
AcDbSavedByObjectVersion
1070
     0
  0
VISUALSTYLE
  5
3A
102
{ACAD_REACTORS
330
2A
102
}
102
{ACAD_XDICTIONARY
360
336
102
}
330
2A
100
AcDbVisualStyle
  2
ColorChange
 70
    16
 71
     2
 72
     2
 73
     3
 90
        0
 40
-0.6
 41
-30.0
 62
     5
 63
     8
421
  8421504
 74
     1
 91
        4
 64
     7
 65
   257
 75
     1
175
     1
 42
1.0
 92
        8
 66
     8
424
  8421504
 43
1.0
 76
     1
 77
     6
 78
     2
 67
     7
 79
     5
170
     0
171
     0
290
     0
174
     0
 93
        1
 44
0.0
173
     0
291
     1
 45
0.0
1001
ACAD
1000
AcDbSavedByObjectVersion
1070
     0
  0
VISUALSTYLE
  5
34
102
{ACAD_REACTORS
330
2A
102
}
102
{ACAD_XDICTIONARY
360
32A
102
}
330
2A
100
AcDbVisualStyle
  2
Conceptual
 70
     9
 71
     3
 72
     2
 73
     0
 90
        0
 40
-0.6
 41
-30.0
 62
     5
 63
     7
421
 16777215
 74
     2
 91
        2
 64
     7
 65
   257
 75
     1
175
     1
 42
40.0
 92
        8
 66
     7
 43
1.0
 76
     1
 77
     6
 78
     2
 67
     7
 79
     3
170
     0
171
     0
290
     0
174
     0
 93
        1
 44
0.0
173
     0
291
     0
 45
0.0
1001
ACAD
1000
AcDbSavedByObjectVersion
1070
     0
  0
VISUALSTYLE
  5
35
102
{ACAD_REACTORS
330
2A
102
}
102
{ACAD_XDICTIONARY
360
32C
102
}
330
2A
100
AcDbVisualStyle
  2
Dim
 70
    11
 71
     2
 72
     2
 73
     0
 90
        0
 40
-0.6
 41
-30.0
 62
     5
 63
     7
421
 16777215
 74
     1
 91
        4
 64
     7
 65
   257
 75
     1
175
     1
 42
1.0
 92
        8
 66
     7
 43
1.0
 76
     1
 77
     6
 78
     2
 67
     7
 79
     5
170
     0
171
     0
290
     0
174
     0
 93
        1
 44
-50.0
173
     0
291
     1
 45
0.0
1001
ACAD
1000
AcDbSavedByObjectVersion
1070
     0
  0
VISUALSTYLE
  5
39
102
{ACAD_REACTORS
330
2A
102
}
102
{ACAD_XDICTIONARY
360
334
102
}
330
2A
100
AcDbVisualStyle
  2
Facepattern
 70
    15
 71
     2
 72
     2
 73
     0
 90
        0
 40
-0.6
 41
-30.0
 62
     5
 63
     7
421
 16777215
 74
     1
 91
        4
 64
     7
 65
   257
 75
     1
175
     1
 42
1.0
 92
        8
 66
     7
 43
1.0
 76
     1
 77
     6
 78
     2
 67
     7
 79
     5
170
     0
171
     0
290
     0
174
     0
 93
        1
 44
0.0
173
     0
291
     1
 45
0.0
1001
ACAD
1000
AcDbSavedByObjectVersion
1070
     0
  0
VISUALSTYLE
  5
2B
102
{ACAD_REACTORS
330
2A
102
}
102
{ACAD_XDICTIONARY
360
318
102
}
330
2A
100
AcDbVisualStyle
  2
Flat
 70
     0
 71
     2
 72
     1
 73
     1
 90
        2
 40
-0.6
 41
30.0
 62
     5
 63
     7
421
 16777215
 74
     0
 91
        4
 64
     7
 65
   257
 75
     1
175
     1
 42
1.0
 92
        8
 66
     7
 43
1.0
 76
     1
 77
     6
 78
     2
 67
     7
 79
     5
170
     0
171
     0
290
     0
174
     0
 93
       13
 44
0.0
173
     0
291
     1
 45
0.0
1001
ACAD
1000
AcDbSavedByObjectVersion
1070
     0
  0
VISUALSTYLE
  5
2C
102
{ACAD_REACTORS
330
2A
102
}
102
{ACAD_XDICTIONARY
360
31A
102
}
330
2A
100
AcDbVisualStyle
  2
FlatWithEdges
 70
     1
 71
     2
 72
     1
 73
     1
 90
        2
 40
-0.6
 41
30.0
 62
     5
 63
     7
421
 16777215
 74
     1
 91
        4
 64
     7
 65
   257
 75
     1
175
     1
 42
1.0
 92
        0
 66
   257
 43
1.0
 76
     1
 77
     6
 78
     2
 67
     7
 79
     5
170
     0
171
     0
290
     0
174
     0
 93
       13
 44
0.0
173
     0
291
     1
 45
0.0
1001
ACAD
1000
AcDbSavedByObjectVersion
1070
     0
  0
VISUALSTYLE
  5
2D
102
{ACAD_REACTORS
330
2A
102
}
102
{ACAD_XDICTIONARY
360
31C
102
}
330
2A
100
AcDbVisualStyle
  2
Gouraud
 70
     2
 71
     2
 72
     2
 73
     1
 90
        2
 40
-0.6
 41
30.0
 62
     5
 63
     7
421
 16777215
 74
     0
 91
        4
 64
     7
 65
   257
 75
     1
175
     1
 42
1.0
 92
        0
 66
     7
 43
1.0
 76
     1
 77
     6
 78
     2
 67
     7
 79
     5
170
     0
171
     0
290
     0
174
     0
 93
       13
 44
0.0
173
     0
291
     1
 45
0.0
1001
ACAD
1000
AcDbSavedByObjectVersion
1070
     0
  0
VISUALSTYLE
  5
2E
102
{ACAD_REACTORS
330
2A
102
}
102
{ACAD_XDICTIONARY
360
31E
102
}
330
2A
100
AcDbVisualStyle
  2
GouraudWithEdges
 70
     3
 71
     2
 72
     2
 73
     1
 90
        2
 40
-0.6
 41
30.0
 62
     5
 63
     7
421
 16777215
 74
     1
 91
        4
 64
     7
 65
   257
 75
     1
175
     1
 42
1.0
 92
        0
 66
   257
 43
1.0
 76
     1
 77
     6
 78
     2
 67
     7
 79
     5
170
     0
171
     0
290
     0
174
     0
 93
       13
 44
0.0
173
     0
291
     1
 45
0.0
1001
ACAD
1000
AcDbSavedByObjectVersion
1070
     0
  0
VISUALSTYLE
  5
38
102
{ACAD_REACTORS
330
2A
102
}
102
{ACAD_XDICTIONARY
360
332
102
}
330
2A
100
AcDbVisualStyle
  2
Linepattern
 70
    14
 71
     2
 72
     2
 73
     0
 90
        0
 40
-0.6
 41
-30.0
 62
     5
 63
     7
421
 16777215
 74
     1
 91
        4
 64
     7
 65
   257
 75
     7
175
     7
 42
1.0
 92
        8
 66
     7
 43
1.0
 76
     1
 77
     6
 78
     2
 67
     7
 79
     5
170
     0
171
     0
290
     0
174
     0
 93
        1
 44
0.0
173
     0
291
     1
 45
0.0
1001
ACAD
1000
AcDbSavedByObjectVersion
1070
     0
  0
VISUALSTYLE
  5
33
102
{ACAD_REACTORS
330
2A
102
}
102
{ACAD_XDICTIONARY
360
328
102
}
330
2A
100
AcDbVisualStyle
  2
Realistic
 70
     8
 71
     2
 72
     2
 73
     0
 90
        0
 40
-0.6
 41
-30.0
 62
     5
 63
     7
421
 16777215
 74
     1
 91
        0
 64
     7
 65
   257
 75
     1
175
     1
 42
1.0
 92
        8
 66
     8
424
  7895160
 43
1.0
 76
     1
 77
     6
 78
     2
 67
     7
 79
     5
170
     0
171
     0
290
     0
174
     0
 93
       13
 44
0.0
173
     0
291
     0
 45
0.0
1001
ACAD
1000
AcDbSavedByObjectVersion
1070
     0
  0
VISUALSTYLE
  5
37
102
{ACAD_REACTORS
330
2A
102
}
102
{ACAD_XDICTIONARY
360
330
102
}
330
2A
100
AcDbVisualStyle
  2
Thicken
 70
    13
 71
     2
 72
     2
 73
     0
 90
        0
 40
-0.6
 41
-30.0
 62
     5
 63
     7
421
 16777215
 74
     1
 91
        4
 64
     7
 65
   257
 75
     1
175
     1
 42
1.0
 92
       12
 66
     7
 43
1.0
 76
     1
 77
     6
 78
     2
 67
     7
 79
     5
170
     0
171
     0
290
     0
174
     0
 93
        1
 44
0.0
173
     0
291
     1
 45
0.0
1001
ACAD
1000
AcDbSavedByObjectVersion
1070
     0
  0
DICTIONARY
  5
33A
330
3D
100
AcDbDictionary
280
     1
281
     1
  3
ACAD_XREC_ROUNDTRIP
360
33B
  0
DICTIONARY
  5
338
330
3C
100
AcDbDictionary
280
     1
281
     1
  3
ACAD_XREC_ROUNDTRIP
360
339
  0
DICTIONARY
  5
33C
330
3E
100
AcDbDictionary
280
     1
281
     1
  3
ACAD_XREC_ROUNDTRIP
360
33D
  0
DICTIONARY
  5
320
330
2F
100
AcDbDictionary
280
     1
281
     1
  3
ACAD_XREC_ROUNDTRIP
360
321
  0
DICTIONARY
  5
324
330
31
100
AcDbDictionary
280
     1
281
     1
  3
ACAD_XREC_ROUNDTRIP
360
325
  0
DICTIONARY
  5
322
330
30
100
AcDbDictionary
280
     1
281
     1
  3
ACAD_XREC_ROUNDTRIP
360
323
  0
DICTIONARY
  5
326
330
32
100
AcDbDictionary
280
     1
281
     1
  3
ACAD_XREC_ROUNDTRIP
360
327
  0
DICTIONARY
  5
32E
330
36
100
AcDbDictionary
280
     1
281
     1
  3
ACAD_XREC_ROUNDTRIP
360
32F
  0
DICTIONARY
  5
336
330
3A
100
AcDbDictionary
280
     1
281
     1
  3
ACAD_XREC_ROUNDTRIP
360
337
  0
DICTIONARY
  5
32A
330
34
100
AcDbDictionary
280
     1
281
     1
  3
ACAD_XREC_ROUNDTRIP
360
32B
  0
DICTIONARY
  5
32C
330
35
100
AcDbDictionary
280
     1
281
     1
  3
ACAD_XREC_ROUNDTRIP
360
32D
  0
DICTIONARY
  5
334
330
39
100
AcDbDictionary
280
     1
281
     1
  3
ACAD_XREC_ROUNDTRIP
360
335
  0
DICTIONARY
  5
318
330
2B
100
AcDbDictionary
280
     1
281
     1
  3
ACAD_XREC_ROUNDTRIP
360
319
  0
DICTIONARY
  5
31A
330
2C
100
AcDbDictionary
280
     1
281
     1
  3
ACAD_XREC_ROUNDTRIP
360
31B
  0
DICTIONARY
  5
31C
330
2D
100
AcDbDictionary
280
     1
281
     1
  3
ACAD_XREC_ROUNDTRIP
360
31D
  0
DICTIONARY
  5
31E
330
2E
100
AcDbDictionary
280
     1
281
     1
  3
ACAD_XREC_ROUNDTRIP
360
31F
  0
DICTIONARY
  5
332
330
38
100
AcDbDictionary
280
     1
281
     1
  3
ACAD_XREC_ROUNDTRIP
360
333
  0
DICTIONARY
  5
328
330
33
100
AcDbDictionary
280
     1
281
     1
  3
ACAD_XREC_ROUNDTRIP
360
329
  0
DICTIONARY
  5
330
330
37
100
AcDbDictionary
280
     1
281
     1
  3
ACAD_XREC_ROUNDTRIP
360
331
  0
XRECORD
  5
33B
102
{ACAD_REACTORS
330
33A
102
}
330
33A
100
AcDbXrecord
280
     1
102
MATERIAL
148
0.0
149
0.0
149
0.0
 93
        0
 94
      127
282
     0
 72
     1
 77
     1
171
     1
175
     1
179
     1
273
     0
  0
XRECORD
  5
339
102
{ACAD_REACTORS
330
338
102
}
330
338
100
AcDbXrecord
280
     1
102
MATERIAL
148
0.0
149
0.0
149
0.0
 93
        0
 94
      127
282
     0
 72
     1
 77
     1
171
     1
175
     1
179
     1
273
     0
  0
XRECORD
  5
33D
102
{ACAD_REACTORS
330
33C
102
}
330
33C
100
AcDbXrecord
280
     1
102
MATERIAL
148
0.0
149
0.0
149
0.0
 93
        0
 94
      127
282
     0
 72
     1
 77
     1
171
     1
175
     1
179
     1
273
     0
  0
XRECORD
  5
321
102
{ACAD_REACTORS
330
320
102
}
330
320
100
AcDbXrecord
280
     1
102
RTVSPropertyOp0
 70
     1
102
RTVSPropertyOp1
 70
     1
102
RTVSPropertyOp2
 70
     1
102
RTVSPropertyOp3
 70
     1
102
RTVSPropertyOp4
 70
     1
102
RTVSPropertyOp5
 70
     1
102
RTVSPropertyOp6
 70
     1
102
RTVSPropertyOp7
 70
     1
102
RTVSPropertyOp8
 70
     1
102
RTVSPropertyOp9
 70
     1
102
RTVSPropertyOp10
 70
     1
102
RTVSPropertyOp11
 70
     1
102
RTVSPropertyOp12
 70
     1
102
RTVSPropertyOp13
 70
     1
102
RTVSPropertyOp14
 70
     1
102
RTVSPropertyOp15
 70
     1
102
RTVSPropertyOp16
 70
     1
102
RTVSPropertyOp17
 70
     1
102
RTVSPropertyOp18
 70
     1
102
RTVSPropertyOp19
 70
     1
102
RTVSPropertyOp20
 70
     1
102
RTVSPropertyOp21
 70
     1
102
RTVSPropertyOp22
 70
     1
102
RTVSPropertyOp23
 70
     1
102
RTVSPropertyOp24
 70
     1
102
RTVSPropertyOp25
 70
     1
102
RTVSPropertyOp26
 70
     1
102
RTVSPropertyOp27
 70
     1
102
RTVSPropertyOp28
 70
     1
102
RTVSPropertyOp29
 70
     1
102
RTVSPropertyOp30
 70
     1
102
RTVSPropertyOp31
 70
     1
102
RTVSPropertyOp32
 70
     1
  0
XRECORD
  5
325
102
{ACAD_REACTORS
330
324
102
}
330
324
100
AcDbXrecord
280
     1
102
RTVSPropertyOp0
 70
     1
102
RTVSPropertyOp1
 70
     1
102
RTVSPropertyOp2
 70
     1
102
RTVSPropertyOp3
 70
     1
102
RTVSPropertyOp4
 70
     1
102
RTVSPropertyOp5
 70
     1
102
RTVSPropertyOp6
 70
     1
102
RTVSPropertyOp7
 70
     1
102
RTVSPropertyOp8
 70
     1
102
RTVSPropertyOp9
 70
     1
102
RTVSPropertyOp10
 70
     1
102
RTVSPropertyOp11
 70
     1
102
RTVSPropertyOp12
 70
     1
102
RTVSPropertyOp13
 70
     1
102
RTVSPropertyOp14
 70
     1
102
RTVSPropertyOp15
 70
     1
102
RTVSPropertyOp16
 70
     1
102
RTVSPropertyOp17
 70
     1
102
RTVSPropertyOp18
 70
     1
102
RTVSPropertyOp19
 70
     1
102
RTVSPropertyOp20
 70
     1
102
RTVSPropertyOp21
 70
     1
102
RTVSPropertyOp22
 70
     1
102
RTVSPropertyOp23
 70
     1
102
RTVSPropertyOp24
 70
     1
102
RTVSPropertyOp25
 70
     1
102
RTVSPropertyOp26
 70
     1
102
RTVSPropertyOp27
 70
     1
102
RTVSPropertyOp28
 70
     1
102
RTVSPropertyOp29
 70
     1
102
RTVSPropertyOp30
 70
     1
102
RTVSPropertyOp31
 70
     1
102
RTVSPropertyOp32
 70
     1
  0
XRECORD
  5
323
102
{ACAD_REACTORS
330
322
102
}
330
322
100
AcDbXrecord
280
     1
102
RTVSPropertyOp0
 70
     1
102
RTVSPropertyOp1
 70
     1
102
RTVSPropertyOp2
 70
     1
102
RTVSPropertyOp3
 70
     1
102
RTVSPropertyOp4
 70
     1
102
RTVSPropertyOp5
 70
     1
102
RTVSPropertyOp6
 70
     1
102
RTVSPropertyOp7
 70
     1
102
RTVSPropertyOp8
 70
     1
102
RTVSPropertyOp9
 70
     1
102
RTVSPropertyOp10
 70
     1
102
RTVSPropertyOp11
 70
     1
102
RTVSPropertyOp12
 70
     1
102
RTVSPropertyOp13
 70
     1
102
RTVSPropertyOp14
 70
     1
102
RTVSPropertyOp15
 70
     1
102
RTVSPropertyOp16
 70
     1
102
RTVSPropertyOp17
 70
     1
102
RTVSPropertyOp18
 70
     1
102
RTVSPropertyOp19
 70
     1
102
RTVSPropertyOp20
 70
     1
102
RTVSPropertyOp21
 70
     1
102
RTVSPropertyOp22
 70
     1
102
RTVSPropertyOp23
 70
     1
102
RTVSPropertyOp24
 70
     1
102
RTVSPropertyOp25
 70
     1
102
RTVSPropertyOp26
 70
     1
102
RTVSPropertyOp27
 70
     1
102
RTVSPropertyOp28
 70
     1
102
RTVSPropertyOp29
 70
     1
102
RTVSPropertyOp30
 70
     1
102
RTVSPropertyOp31
 70
     1
102
RTVSPropertyOp32
 70
     1
  0
XRECORD
  5
327
102
{ACAD_REACTORS
330
326
102
}
330
326
100
AcDbXrecord
280
     1
102
RTVSPropertyOp0
 70
     1
102
RTVSPropertyOp1
 70
     1
102
RTVSPropertyOp2
 70
     1
102
RTVSPropertyOp3
 70
     1
102
RTVSPropertyOp4
 70
     1
102
RTVSPropertyOp5
 70
     1
102
RTVSPropertyOp6
 70
     1
102
RTVSPropertyOp7
 70
     1
102
RTVSPropertyOp8
 70
     1
102
RTVSPropertyOp9
 70
     1
102
RTVSPropertyOp10
 70
     1
102
RTVSPropertyOp11
 70
     1
102
RTVSPropertyOp12
 70
     1
102
RTVSPropertyOp13
 70
     1
102
RTVSPropertyOp14
 70
     1
102
RTVSPropertyOp15
 70
     1
102
RTVSPropertyOp16
 70
     1
102
RTVSPropertyOp17
 70
     1
102
RTVSPropertyOp18
 70
     1
102
RTVSPropertyOp19
 70
     1
102
RTVSPropertyOp20
 70
     1
102
RTVSPropertyOp21
 70
     1
102
RTVSPropertyOp22
 70
     1
102
RTVSPropertyOp23
 70
     1
102
RTVSPropertyOp24
 70
     1
102
RTVSPropertyOp25
 70
     1
102
RTVSPropertyOp26
 70
     1
102
RTVSPropertyOp27
 70
     1
102
RTVSPropertyOp28
 70
     1
102
RTVSPropertyOp29
 70
     1
102
RTVSPropertyOp30
 70
     1
102
RTVSPropertyOp31
 70
     1
102
RTVSPropertyOp32
 70
     1
  0
XRECORD
  5
32F
102
{ACAD_REACTORS
330
32E
102
}
330
32E
100
AcDbXrecord
280
     1
102
RTVSPropertyOp0
 70
     1
102
RTVSPropertyOp1
 70
     1
102
RTVSPropertyOp2
 70
     1
102
RTVSPropertyOp3
 70
     1
102
RTVSPropertyOp4
 70
     1
102
RTVSPropertyOp5
 70
     1
102
RTVSPropertyOp6
 70
     1
102
RTVSPropertyOp7
 70
     1
102
RTVSPropertyOp8
 70
     1
102
RTVSPropertyOp9
 70
     1
102
RTVSPropertyOp10
 70
     1
102
RTVSPropertyOp11
 70
     1
102
RTVSPropertyOp12
 70
     1
102
RTVSPropertyOp13
 70
     1
102
RTVSPropertyOp14
 70
     1
102
RTVSPropertyOp15
 70
     1
102
RTVSPropertyOp16
 70
     1
102
RTVSPropertyOp17
 70
     1
102
RTVSPropertyOp18
 70
     1
102
RTVSPropertyOp19
 70
     1
102
RTVSPropertyOp20
 70
     1
102
RTVSPropertyOp21
 70
     1
102
RTVSPropertyOp22
 70
     1
102
RTVSPropertyOp23
 70
     1
102
RTVSPropertyOp24
 70
     1
102
RTVSPropertyOp25
 70
     1
102
RTVSPropertyOp26
 70
     1
102
RTVSPropertyOp27
 70
     1
102
RTVSPropertyOp28
 70
     1
102
RTVSPropertyOp29
 70
     1
102
RTVSPropertyOp30
 70
     1
102
RTVSPropertyOp31
 70
     1
102
RTVSPropertyOp32
 70
     1
  0
XRECORD
  5
337
102
{ACAD_REACTORS
330
336
102
}
330
336
100
AcDbXrecord
280
     1
102
RTVSPropertyOp0
 70
     1
102
RTVSPropertyOp1
 70
     1
102
RTVSPropertyOp2
 70
     1
102
RTVSPropertyOp3
 70
     1
102
RTVSPropertyOp4
 70
     1
102
RTVSPropertyOp5
 70
     1
102
RTVSPropertyOp6
 70
     1
102
RTVSPropertyOp7
 70
     1
102
RTVSPropertyOp8
 70
     1
102
RTVSPropertyOp9
 70
     1
102
RTVSPropertyOp10
 70
     1
102
RTVSPropertyOp11
 70
     1
102
RTVSPropertyOp12
 70
     1
102
RTVSPropertyOp13
 70
     1
102
RTVSPropertyOp14
 70
     1
102
RTVSPropertyOp15
 70
     1
102
RTVSPropertyOp16
 70
     1
102
RTVSPropertyOp17
 70
     1
102
RTVSPropertyOp18
 70
     1
102
RTVSPropertyOp19
 70
     1
102
RTVSPropertyOp20
 70
     1
102
RTVSPropertyOp21
 70
     1
102
RTVSPropertyOp22
 70
     1
102
RTVSPropertyOp23
 70
     1
102
RTVSPropertyOp24
 70
     1
102
RTVSPropertyOp25
 70
     1
102
RTVSPropertyOp26
 70
     1
102
RTVSPropertyOp27
 70
     1
102
RTVSPropertyOp28
 70
     1
102
RTVSPropertyOp29
 70
     1
102
RTVSPropertyOp30
 70
     1
102
RTVSPropertyOp31
 70
     1
102
RTVSPropertyOp32
 70
     1
  0
XRECORD
  5
32B
102
{ACAD_REACTORS
330
32A
102
}
330
32A
100
AcDbXrecord
280
     1
102
RTVSPropertyOp0
 70
     1
102
RTVSPropertyOp1
 70
     1
102
RTVSPropertyOp2
 70
     1
102
RTVSPropertyOp3
 70
     1
102
RTVSPropertyOp4
 70
     1
102
RTVSPropertyOp5
 70
     1
102
RTVSPropertyOp6
 70
     1
102
RTVSPropertyOp7
 70
     1
102
RTVSPropertyOp8
 70
     1
102
RTVSPropertyOp9
 70
     1
102
RTVSPropertyOp10
 70
     1
102
RTVSPropertyOp11
 70
     1
102
RTVSPropertyOp12
 70
     1
102
RTVSPropertyOp13
 70
     1
102
RTVSPropertyOp14
 70
     1
102
RTVSPropertyOp15
 70
     1
102
RTVSPropertyOp16
 70
     1
102
RTVSPropertyOp17
 70
     1
102
RTVSPropertyOp18
 70
     1
102
RTVSPropertyOp19
 70
     1
102
RTVSPropertyOp20
 70
     1
102
RTVSPropertyOp21
 70
     1
102
RTVSPropertyOp22
 70
     1
102
RTVSPropertyOp23
 70
     1
102
RTVSPropertyOp24
 70
     1
102
RTVSPropertyOp25
 70
     1
102
RTVSPropertyOp26
 70
     1
102
RTVSPropertyOp27
 70
     1
102
RTVSPropertyOp28
 70
     1
102
RTVSPropertyOp29
 70
     1
102
RTVSPropertyOp30
 70
     1
102
RTVSPropertyOp31
 70
     1
102
RTVSPropertyOp32
 70
     1
  0
XRECORD
  5
32D
102
{ACAD_REACTORS
330
32C
102
}
330
32C
100
AcDbXrecord
280
     1
102
RTVSPropertyOp0
 70
     1
102
RTVSPropertyOp1
 70
     1
102
RTVSPropertyOp2
 70
     1
102
RTVSPropertyOp3
 70
     1
102
RTVSPropertyOp4
 70
     1
102
RTVSPropertyOp5
 70
     1
102
RTVSPropertyOp6
 70
     1
102
RTVSPropertyOp7
 70
     1
102
RTVSPropertyOp8
 70
     1
102
RTVSPropertyOp9
 70
     1
102
RTVSPropertyOp10
 70
     1
102
RTVSPropertyOp11
 70
     1
102
RTVSPropertyOp12
 70
     1
102
RTVSPropertyOp13
 70
     1
102
RTVSPropertyOp14
 70
     1
102
RTVSPropertyOp15
 70
     1
102
RTVSPropertyOp16
 70
     1
102
RTVSPropertyOp17
 70
     1
102
RTVSPropertyOp18
 70
     1
102
RTVSPropertyOp19
 70
     1
102
RTVSPropertyOp20
 70
     1
102
RTVSPropertyOp21
 70
     1
102
RTVSPropertyOp22
 70
     1
102
RTVSPropertyOp23
 70
     1
102
RTVSPropertyOp24
 70
     1
102
RTVSPropertyOp25
 70
     1
102
RTVSPropertyOp26
 70
     1
102
RTVSPropertyOp27
 70
     1
102
RTVSPropertyOp28
 70
     1
102
RTVSPropertyOp29
 70
     1
102
RTVSPropertyOp30
 70
     1
102
RTVSPropertyOp31
 70
     1
102
RTVSPropertyOp32
 70
     1
  0
XRECORD
  5
335
102
{ACAD_REACTORS
330
334
102
}
330
334
100
AcDbXrecord
280
     1
102
RTVSPropertyOp0
 70
     1
102
RTVSPropertyOp1
 70
     1
102
RTVSPropertyOp2
 70
     1
102
RTVSPropertyOp3
 70
     1
102
RTVSPropertyOp4
 70
     1
102
RTVSPropertyOp5
 70
     1
102
RTVSPropertyOp6
 70
     1
102
RTVSPropertyOp7
 70
     1
102
RTVSPropertyOp8
 70
     1
102
RTVSPropertyOp9
 70
     1
102
RTVSPropertyOp10
 70
     1
102
RTVSPropertyOp11
 70
     1
102
RTVSPropertyOp12
 70
     1
102
RTVSPropertyOp13
 70
     1
102
RTVSPropertyOp14
 70
     1
102
RTVSPropertyOp15
 70
     1
102
RTVSPropertyOp16
 70
     1
102
RTVSPropertyOp17
 70
     1
102
RTVSPropertyOp18
 70
     1
102
RTVSPropertyOp19
 70
     1
102
RTVSPropertyOp20
 70
     1
102
RTVSPropertyOp21
 70
     1
102
RTVSPropertyOp22
 70
     1
102
RTVSPropertyOp23
 70
     1
102
RTVSPropertyOp24
 70
     1
102
RTVSPropertyOp25
 70
     1
102
RTVSPropertyOp26
 70
     1
102
RTVSPropertyOp27
 70
     1
102
RTVSPropertyOp28
 70
     1
102
RTVSPropertyOp29
 70
     1
102
RTVSPropertyOp30
 70
     1
102
RTVSPropertyOp31
 70
     1
102
RTVSPropertyOp32
 70
     1
  0
XRECORD
  5
319
102
{ACAD_REACTORS
330
318
102
}
330
318
100
AcDbXrecord
280
     1
102
RTVSPropertyOp0
 70
     1
102
RTVSPropertyOp1
 70
     1
102
RTVSPropertyOp2
 70
     1
102
RTVSPropertyOp3
 70
     1
102
RTVSPropertyOp4
 70
     1
102
RTVSPropertyOp5
 70
     1
102
RTVSPropertyOp6
 70
     1
102
RTVSPropertyOp7
 70
     1
102
RTVSPropertyOp8
 70
     1
102
RTVSPropertyOp9
 70
     1
102
RTVSPropertyOp10
 70
     1
102
RTVSPropertyOp11
 70
     1
102
RTVSPropertyOp12
 70
     1
102
RTVSPropertyOp13
 70
     1
102
RTVSPropertyOp14
 70
     1
102
RTVSPropertyOp15
 70
     1
102
RTVSPropertyOp16
 70
     1
102
RTVSPropertyOp17
 70
     1
102
RTVSPropertyOp18
 70
     1
102
RTVSPropertyOp19
 70
     1
102
RTVSPropertyOp20
 70
     1
102
RTVSPropertyOp21
 70
     1
102
RTVSPropertyOp22
 70
     1
102
RTVSPropertyOp23
 70
     1
102
RTVSPropertyOp24
 70
     1
102
RTVSPropertyOp25
 70
     1
102
RTVSPropertyOp26
 70
     1
102
RTVSPropertyOp27
 70
     1
102
RTVSPropertyOp28
 70
     1
102
RTVSPropertyOp29
 70
     1
102
RTVSPropertyOp30
 70
     1
102
RTVSPropertyOp31
 70
     1
102
RTVSPropertyOp32
 70
     1
  0
XRECORD
  5
31B
102
{ACAD_REACTORS
330
31A
102
}
330
31A
100
AcDbXrecord
280
     1
102
RTVSPropertyOp0
 70
     1
102
RTVSPropertyOp1
 70
     1
102
RTVSPropertyOp2
 70
     1
102
RTVSPropertyOp3
 70
     1
102
RTVSPropertyOp4
 70
     1
102
RTVSPropertyOp5
 70
     1
102
RTVSPropertyOp6
 70
     1
102
RTVSPropertyOp7
 70
     1
102
RTVSPropertyOp8
 70
     1
102
RTVSPropertyOp9
 70
     1
102
RTVSPropertyOp10
 70
     1
102
RTVSPropertyOp11
 70
     1
102
RTVSPropertyOp12
 70
     1
102
RTVSPropertyOp13
 70
     1
102
RTVSPropertyOp14
 70
     1
102
RTVSPropertyOp15
 70
     1
102
RTVSPropertyOp16
 70
     1
102
RTVSPropertyOp17
 70
     1
102
RTVSPropertyOp18
 70
     1
102
RTVSPropertyOp19
 70
     1
102
RTVSPropertyOp20
 70
     1
102
RTVSPropertyOp21
 70
     1
102
RTVSPropertyOp22
 70
     1
102
RTVSPropertyOp23
 70
     1
102
RTVSPropertyOp24
 70
     1
102
RTVSPropertyOp25
 70
     1
102
RTVSPropertyOp26
 70
     1
102
RTVSPropertyOp27
 70
     1
102
RTVSPropertyOp28
 70
     1
102
RTVSPropertyOp29
 70
     1
102
RTVSPropertyOp30
 70
     1
102
RTVSPropertyOp31
 70
     1
102
RTVSPropertyOp32
 70
     1
  0
XRECORD
  5
31D
102
{ACAD_REACTORS
330
31C
102
}
330
31C
100
AcDbXrecord
280
     1
102
RTVSPropertyOp0
 70
     1
102
RTVSPropertyOp1
 70
     1
102
RTVSPropertyOp2
 70
     1
102
RTVSPropertyOp3
 70
     1
102
RTVSPropertyOp4
 70
     1
102
RTVSPropertyOp5
 70
     1
102
RTVSPropertyOp6
 70
     1
102
RTVSPropertyOp7
 70
     1
102
RTVSPropertyOp8
 70
     1
102
RTVSPropertyOp9
 70
     1
102
RTVSPropertyOp10
 70
     1
102
RTVSPropertyOp11
 70
     1
102
RTVSPropertyOp12
 70
     1
102
RTVSPropertyOp13
 70
     1
102
RTVSPropertyOp14
 70
     1
102
RTVSPropertyOp15
 70
     1
102
RTVSPropertyOp16
 70
     1
102
RTVSPropertyOp17
 70
     1
102
RTVSPropertyOp18
 70
     1
102
RTVSPropertyOp19
 70
     1
102
RTVSPropertyOp20
 70
     1
102
RTVSPropertyOp21
 70
     1
102
RTVSPropertyOp22
 70
     1
102
RTVSPropertyOp23
 70
     1
102
RTVSPropertyOp24
 70
     1
102
RTVSPropertyOp25
 70
     1
102
RTVSPropertyOp26
 70
     1
102
RTVSPropertyOp27
 70
     1
102
RTVSPropertyOp28
 70
     1
102
RTVSPropertyOp29
 70
     1
102
RTVSPropertyOp30
 70
     1
102
RTVSPropertyOp31
 70
     1
102
RTVSPropertyOp32
 70
     1
  0
XRECORD
  5
31F
102
{ACAD_REACTORS
330
31E
102
}
330
31E
100
AcDbXrecord
280
     1
102
RTVSPropertyOp0
 70
     1
102
RTVSPropertyOp1
 70
     1
102
RTVSPropertyOp2
 70
     1
102
RTVSPropertyOp3
 70
     1
102
RTVSPropertyOp4
 70
     1
102
RTVSPropertyOp5
 70
     1
102
RTVSPropertyOp6
 70
     1
102
RTVSPropertyOp7
 70
     1
102
RTVSPropertyOp8
 70
     1
102
RTVSPropertyOp9
 70
     1
102
RTVSPropertyOp10
 70
     1
102
RTVSPropertyOp11
 70
     1
102
RTVSPropertyOp12
 70
     1
102
RTVSPropertyOp13
 70
     1
102
RTVSPropertyOp14
 70
     1
102
RTVSPropertyOp15
 70
     1
102
RTVSPropertyOp16
 70
     1
102
RTVSPropertyOp17
 70
     1
102
RTVSPropertyOp18
 70
     1
102
RTVSPropertyOp19
 70
     1
102
RTVSPropertyOp20
 70
     1
102
RTVSPropertyOp21
 70
     1
102
RTVSPropertyOp22
 70
     1
102
RTVSPropertyOp23
 70
     1
102
RTVSPropertyOp24
 70
     1
102
RTVSPropertyOp25
 70
     1
102
RTVSPropertyOp26
 70
     1
102
RTVSPropertyOp27
 70
     1
102
RTVSPropertyOp28
 70
     1
102
RTVSPropertyOp29
 70
     1
102
RTVSPropertyOp30
 70
     1
102
RTVSPropertyOp31
 70
     1
102
RTVSPropertyOp32
 70
     1
  0
XRECORD
  5
333
102
{ACAD_REACTORS
330
332
102
}
330
332
100
AcDbXrecord
280
     1
102
RTVSPropertyOp0
 70
     1
102
RTVSPropertyOp1
 70
     1
102
RTVSPropertyOp2
 70
     1
102
RTVSPropertyOp3
 70
     1
102
RTVSPropertyOp4
 70
     1
102
RTVSPropertyOp5
 70
     1
102
RTVSPropertyOp6
 70
     1
102
RTVSPropertyOp7
 70
     1
102
RTVSPropertyOp8
 70
     1
102
RTVSPropertyOp9
 70
     1
102
RTVSPropertyOp10
 70
     1
102
RTVSPropertyOp11
 70
     1
102
RTVSPropertyOp12
 70
     1
102
RTVSPropertyOp13
 70
     1
102
RTVSPropertyOp14
 70
     1
102
RTVSPropertyOp15
 70
     1
102
RTVSPropertyOp16
 70
     1
102
RTVSPropertyOp17
 70
     1
102
RTVSPropertyOp18
 70
     1
102
RTVSPropertyOp19
 70
     1
102
RTVSPropertyOp20
 70
     1
102
RTVSPropertyOp21
 70
     1
102
RTVSPropertyOp22
 70
     1
102
RTVSPropertyOp23
 70
     1
102
RTVSPropertyOp24
 70
     1
102
RTVSPropertyOp25
 70
     1
102
RTVSPropertyOp26
 70
     1
102
RTVSPropertyOp27
 70
     1
102
RTVSPropertyOp28
 70
     1
102
RTVSPropertyOp29
 70
     1
102
RTVSPropertyOp30
 70
     1
102
RTVSPropertyOp31
 70
     1
102
RTVSPropertyOp32
 70
     1
  0
XRECORD
  5
329
102
{ACAD_REACTORS
330
328
102
}
330
328
100
AcDbXrecord
280
     1
102
RTVSPropertyOp0
 70
     1
102
RTVSPropertyOp1
 70
     1
102
RTVSPropertyOp2
 70
     1
102
RTVSPropertyOp3
 70
     1
102
RTVSPropertyOp4
 70
     1
102
RTVSPropertyOp5
 70
     1
102
RTVSPropertyOp6
 70
     1
102
RTVSPropertyOp7
 70
     1
102
RTVSPropertyOp8
 70
     1
102
RTVSPropertyOp9
 70
     1
102
RTVSPropertyOp10
 70
     1
102
RTVSPropertyOp11
 70
     1
102
RTVSPropertyOp12
 70
     1
102
RTVSPropertyOp13
 70
     1
102
RTVSPropertyOp14
 70
     1
102
RTVSPropertyOp15
 70
     1
102
RTVSPropertyOp16
 70
     1
102
RTVSPropertyOp17
 70
     1
102
RTVSPropertyOp18
 70
     1
102
RTVSPropertyOp19
 70
     1
102
RTVSPropertyOp20
 70
     1
102
RTVSPropertyOp21
 70
     1
102
RTVSPropertyOp22
 70
     1
102
RTVSPropertyOp23
 70
     1
102
RTVSPropertyOp24
 70
     1
102
RTVSPropertyOp25
 70
     1
102
RTVSPropertyOp26
 70
     1
102
RTVSPropertyOp27
 70
     1
102
RTVSPropertyOp28
 70
     1
102
RTVSPropertyOp29
 70
     1
102
RTVSPropertyOp30
 70
     1
102
RTVSPropertyOp31
 70
     1
102
RTVSPropertyOp32
 70
     1
  0
XRECORD
  5
331
102
{ACAD_REACTORS
330
330
102
}
330
330
100
AcDbXrecord
280
     1
102
RTVSPropertyOp0
 70
     1
102
RTVSPropertyOp1
 70
     1
102
RTVSPropertyOp2
 70
     1
102
RTVSPropertyOp3
 70
     1
102
RTVSPropertyOp4
 70
     1
102
RTVSPropertyOp5
 70
     1
102
RTVSPropertyOp6
 70
     1
102
RTVSPropertyOp7
 70
     1
102
RTVSPropertyOp8
 70
     1
102
RTVSPropertyOp9
 70
     1
102
RTVSPropertyOp10
 70
     1
102
RTVSPropertyOp11
 70
     1
102
RTVSPropertyOp12
 70
     1
102
RTVSPropertyOp13
 70
     1
102
RTVSPropertyOp14
 70
     1
102
RTVSPropertyOp15
 70
     1
102
RTVSPropertyOp16
 70
     1
102
RTVSPropertyOp17
 70
     1
102
RTVSPropertyOp18
 70
     1
102
RTVSPropertyOp19
 70
     1
102
RTVSPropertyOp20
 70
     1
102
RTVSPropertyOp21
 70
     1
102
RTVSPropertyOp22
 70
     1
102
RTVSPropertyOp23
 70
     1
102
RTVSPropertyOp24
 70
     1
102
RTVSPropertyOp25
 70
     1
102
RTVSPropertyOp26
 70
     1
102
RTVSPropertyOp27
 70
     1
102
RTVSPropertyOp28
 70
     1
102
RTVSPropertyOp29
 70
     1
102
RTVSPropertyOp30
 70
     1
102
RTVSPropertyOp31
 70
     1
102
RTVSPropertyOp32
 70
     1
  0
ENDSEC
  0
EOF
